#499 File extension .WMV

common
closed
nobody
None
5
2013-08-18
2012-12-04
No
1 Attachments

Discussion

  • Anonymous - 2012-12-04

    DVDStyler v2.3.4
    Windows 7 (build 7601, Service Pack 1)
    FFmpeg: libavformat 54.18.0, libavcodec 54.31.0, libavutil 51.44.0
    Prepare
    Cleaning temporary directory
    Search for transcoded files in cache
    Generating menus
    Generating menu 1 of 2
    Create menu MPEG
    Multiplexing subpictures into mpeg
    Menu has 1 group(s) of changeable colours.
    Executing command: spumux -P -s 0 "C:\Users\George\AppData\Local\Temp\dvd-tmp\menu1-0.mpg_spumux.xml"
    DVDAuthor::spumux, version 0.7.0.
    Build options: gnugetopt iconv freetype fribidi fontconfig
    Send bug reports to dvdauthor-users@lists.sourceforge.net
    INFO: default video format is PAL
    INFO: Converting filenames to cp1252
    INFO: PNG had 1 colors
    INFO: PNG had 4 colors
    INFO: PNG had 4 colors
    INFO: Pickbuttongroups, success with 1 groups, useimg=1
    INFO: 0 bytes of data written
    INFO: 12288 bytes of data written
    INFO: 22528 bytes of data written
    INFO: Found EOF in .sub file.
    INFO: Max_sub_size=116
    INFO: 34816 bytes of data written
    INFO: 45056 bytes of data written
    INFO: 55296 bytes of data written
    INFO: 1 subtitles added, 0 subtitles skipped, stream: 32, offset: 1.00
    Menu has 1 group(s) of changeable colours.
    Executing command: spumux -P -s 1 "C:\Users\George\AppData\Local\Temp\dvd-tmp\menu1-0.mpg_spumux.xml"
    DVDAuthor::spumux, version 0.7.0.
    Build options: gnugetopt iconv freetype fribidi fontconfig
    Send bug reports to dvdauthor-users@lists.sourceforge.net
    INFO: default video format is PAL
    INFO: Converting filenames to cp1252
    INFO: PNG had 1 colors
    INFO: PNG had 4 colors
    INFO: PNG had 4 colors
    INFO: Pickbuttongroups, success with 1 groups, useimg=1
    INFO: 0 bytes of data written
    INFO: 12288 bytes of data written
    INFO: 24576 bytes of data written
    INFO: Found EOF in .sub file.
    INFO: Max_sub_size=100
    INFO: found existing substream ID 0x20 (DVD-Video 0)
    INFO: 36864 bytes of data written
    INFO: 49152 bytes of data written
    INFO: 59392 bytes of data written
    INFO: 1 subtitles added, 0 subtitles skipped, stream: 33, offset: 1.00
    Generating menu 2 of 2
    Create menu MPEG
    Multiplexing subpictures into mpeg
    Menu has 2 group(s) of changeable colours.
    Executing command: spumux -P -s 0 "C:\Users\George\AppData\Local\Temp\dvd-tmp\menu1-1.mpg_spumux.xml"
    DVDAuthor::spumux, version 0.7.0.
    Build options: gnugetopt iconv freetype fribidi fontconfig
    Send bug reports to dvdauthor-users@lists.sourceforge.net
    INFO: default video format is PAL
    INFO: Converting filenames to cp1252
    INFO: PNG had 1 colors
    INFO: PNG had 4 colors
    INFO: PNG had 7 colors
    INFO: Pickbuttongroups, success with 2 groups, useimg=1
    INFO: 0 bytes of data written
    INFO: 12288 bytes of data written
    INFO: 24576 bytes of data written
    INFO: Found EOF in .sub file.
    INFO: Max_sub_size=1672
    INFO: 36864 bytes of data written
    INFO: 49152 bytes of data written
    INFO: 61440 bytes of data written
    INFO: 1 subtitles added, 0 subtitles skipped, stream: 32, offset: 1.00
    Menu has 2 group(s) of changeable colours.
    Executing command: spumux -P -s 1 "C:\Users\George\AppData\Local\Temp\dvd-tmp\menu1-1.mpg_spumux.xml"
    DVDAuthor::spumux, version 0.7.0.
    Build options: gnugetopt iconv freetype fribidi fontconfig
    Send bug reports to dvdauthor-users@lists.sourceforge.net
    INFO: default video format is PAL
    INFO: Converting filenames to cp1252
    INFO: PNG had 1 colors
    INFO: PNG had 4 colors
    INFO: PNG had 7 colors
    INFO: Pickbuttongroups, success with 2 groups, useimg=1
    INFO: 0 bytes of data written
    INFO: 14336 bytes of data written
    INFO: 26624 bytes of data written
    INFO: Found EOF in .sub file.
    INFO: Max_sub_size=1266
    INFO: found existing substream ID 0x20 (DVD-Video 0)
    INFO: 40960 bytes of data written
    INFO: 53248 bytes of data written
    INFO: 65536 bytes of data written
    INFO: 1 subtitles added, 0 subtitles skipped, stream: 33, offset: 1.00
    Transcode/remultiplex
    Add file to cache:C:\Users\George\AppData\Local\Temp\dvd-cache\entry001.vob
    Transcode video file: C:\Users\George\Desktop\Teen Sex Movies Lucy xxx.wmv
    Need encode: true, use mplex: false
    Executing command: avconv -i "C:\Users\George\Desktop\Teen Sex Movies Lucy xxx.wmv" -f dvd -c:v:0 mpeg2video -s 720x576 -r 25 -g 15 -b:v:0 8000000 -maxrate:v:0 8000000 -minrate:v:0 8000000 -bufsize:v:0 1835008 -packetsize 2048 -muxrate 10080000 -b:a 224000 -ar 48000 -c:a:0 ac3 -map 0 -map -0:d "C:\Users\George\AppData\Local\Temp\dvd-cache\entry001.vob"
    avconv version v9_beta1-39-g6304f78, Copyright (c) 2000-2012 the Libav developers
    built on Oct 13 2012 07:03:44 with gcc 4.5.2 (Gentoo 4.5.2 p1.1, pie-0.4.5)
    Guessed Channel Layout for Input Stream #0.0 : stereo
    Input #0, asf, from 'C:\Users\George\Desktop\Teen Sex Movies Lucy xxx.wmv':
    Metadata:
    WMFSDKVersion : 11.0.6001.7000
    WMFSDKNeeded : 0.0.0.0000
    IsVBR : 0
    Duration: 00:20:07.95, start: 0.000000, bitrate: 1403 kb/s
    Stream #0.0(rus): Audio: wmav2, 44100 Hz, stereo, s16, 96 kb/s
    Stream #0.1(rus): Video: wmv3 (Main), yuv420p, 640x480, 1300 kb/s, 25 fps, 25 tbr, 1k tbn
    Output #0, dvd, to 'C:\Users\George\AppData\Local\Temp\dvd-cache\entry001.vob':
    Metadata:
    WMFSDKVersion : 11.0.6001.7000
    WMFSDKNeeded : 0.0.0.0000
    IsVBR : 0
    encoder : Lavf54.18.0
    Stream #0.0(rus): Audio: ac3, 48000 Hz, stereo, fltp, 224 kb/s
    Stream #0.1(rus): Video: mpeg2video, yuv420p, 720x576, q=2-31, 8000 kb/s, 90k tbn, 25 tbc
    Stream mapping:
    Stream #0:0 -> #0:0 (wmav2 -> ac3)
    Stream #0:1 -> #0:1 (wmv3 -> mpeg2video)
    Press ctrl-c to stop encoding
    [mpeg2video @ 021b9ce0] rc buffer underflow
    [dvd @ 021b63c0] Application provided invalid, non monotonically increasing dts to muxer in stream 0: 28320 >= 26994
    av_interleaved_write_frame(): Invalid argument
    Error transcoding of C:\Users\George\Desktop\Teen Sex Movies Lucy xxx.wmv

     
  • Juan Jose Pablos

    Duplicate of #482

     
  • Juan Jose Pablos

    Try DVDStyler-2.5b4-win32.exe it works for me.

     
  • Alex Thuering

    Alex Thuering - 2013-08-18

    Fixed in DVDStyler 2.5

     
  • Alex Thuering

    Alex Thuering - 2013-08-18
    • status: open --> closed
     

Log in to post a comment.

Get latest updates about Open Source Projects, Conferences and News.

Sign up for the SourceForge newsletter:





No, thanks