Daniel E. White - 2010-05-22

The console says:
     -> 0.000000, bitrate: 70751 kb/s
     ->     Stream #0.0(eng): Video: Apple Intermediate Codec, 1920x1080, 29.97 tbr, 29.97 tbn, 29.97 tbc
     ->     Stream #0.1(eng): Audio: pcm_s16le, 48000 Hz, stereo, s16, 1536 kb/s
     ->     Stream #0.2(eng): Data: tmcd / 0x64636D74
     -> swScaler: Unknown format is not supported as input pixel format
     -> Cannot get resampling context

However, my old copy of Visual Hub will process the same file.