Sun_Blood - 2011-07-21

Hi, this is strange.

I have 2 files that are identical (I think) but only one starts. I'm using Ubuntu and ffmpeg.

Output from "ffmpeg -i"
File1:
Duration: 00:01:02.94, start: 0.000000, bitrate: 3366 kb/s
    Stream #0.0: Video: mpeg4, yuv420p, 1280x688 , 23.98 tbr, 23.98 tbn, 23.98 tbc
    Stream #0.1: Audio: ac3, 48000 Hz, 5.1, s16, 640 kb/s

File2:
  Duration: 01:58:40.09, start: 0.000000, bitrate: 3648 kb/s
    Stream #0.0: Video: mpeg4, yuv420p, 1280x688 , 23.98 tbr, 23.98 tbn, 23.98 tbc
    Stream #0.1: Audio: ac3, 48000 Hz, 5.1, s16, 640 kb/s

When I start the the file1 the transcoding works but when I start file 2 the transcoding wont start.
In the configuration I have.
<agent command="ffmpeg" arguments="-i %in -target pal-dvd -ps 2000000000 -aspect 16:9 -y %out"/>