DnxHD and Prores HQ from Hyperdeck Shuttle not working.

Help
Zach
2013-08-22
2014-03-09
  • Zach

    Zach - 2013-08-22

    Hi,

    I want to be able to use the files produced by a hyperdeck shuttle to encode to DVD. Preferably I would like to use either DNxHD in a mov wrapper or ProResHQ. The problem seems to arise when remuxing the audio. These files have 16 channels of audio embedded in them, however only the first two channels actually have desirable information. It seems not to be able to handle this audio setup. I would like to be able to have it use only the first two audio tracks as the source for stereo audio.

    Here is the error from DNxHD in a .mov wrapper. ProRes has a similar problem.

    DVDStyler v2.3
    Windows 7 (build 7601, Service Pack 1), 64-bit edition
    FFmpeg: libavformat 54.14.0, libavcodec 54.25.0, libavutil 51.39.0
    Prepare
    Cleaning temporary directory
    Search for transcoded files in cache
    Generating menus
    Generating menu 1 of 1
    Create menu MPEG
    Multiplexing subpictures into mpeg
    Menu has 0 group(s) of changeable colours.
    Executing command: spumux -P -s 0 "C:\Users\3ABN\AppData\Local\Temp\dvd-tmp\menu1-0.mpg_spumux.xml"
    DVDAuthor::spumux, version 0.7.0.
    Build options: gnugetopt iconv freetype fribidi fontconfig
    Send bug reports to dvdauthor-users@lists.sourceforge.net
    INFO: default video format is PAL
    INFO: Converting filenames to cp1252
    INFO: PNG had 1 colors
    INFO: PNG had 1 colors
    INFO: PNG had 1 colors
    INFO: 0 bytes of data written
    INFO: 4096 bytes of data written
    INFO: 8192 bytes of data written
    INFO: 10240 bytes of data written
    INFO: Found EOF in .sub file.
    INFO: Max_sub_size=988
    INFO: 18432 bytes of data written
    INFO: 1 subtitles added, 0 subtitles skipped, stream: 32, offset: 1.00
    Menu has 0 group(s) of changeable colours.
    Executing command: spumux -P -s 1 "C:\Users\3ABN\AppData\Local\Temp\dvd-tmp\menu1-0.mpg_spumux.xml"
    DVDAuthor::spumux, version 0.7.0.
    Build options: gnugetopt iconv freetype fribidi fontconfig
    Send bug reports to dvdauthor-users@lists.sourceforge.net
    INFO: default video format is PAL
    INFO: Converting filenames to cp1252
    INFO: PNG had 1 colors
    INFO: PNG had 1 colors
    INFO: PNG had 1 colors
    INFO: 0 bytes of data written
    INFO: 4096 bytes of data written
    INFO: 8192 bytes of data written
    INFO: 12288 bytes of data written
    INFO: Found EOF in .sub file.
    INFO: Max_sub_size=988
    INFO: 18432 bytes of data written
    INFO: found existing substream ID 0x20 (DVD-Video 0)
    INFO: 20480 bytes of data written
    INFO: 1 subtitles added, 0 subtitles skipped, stream: 33, offset: 1.00
    Transcode/remultiplex
    Add file to cache:C:\Users\3ABN\AppData\Local\Temp\dvd-cache\entry001.vob
    Transcode video file: G:\Capture0000.mov
    Need encode: true, use mplex: false
    Executing command: avconv -i "G:\Capture0000.mov" -f dvd -c:v:0 mpeg2video -s 720x480 -r 30000/1001 -g 18 -b:v:0 8000000 -maxrate:v:0 8000000 -minrate:v:0 8000000 -bufsize:v:0 1835008 -packetsize 2048 -muxrate 10080000 -b:a 224000 -ar 48000 -c:a:0 ac3 "C:\Users\3ABN\AppData\Local\Temp\dvd-cache\entry001.vob"
    avconv version v0.8-2815-ga2dd4f7, Copyright (c) 2000-2012 the Libav developers
    built on Aug 17 2012 21:28:10 with gcc 4.5.2 (Gentoo 4.5.2 p1.1, pie-0.4.5)
    Input #0, mov,mp4,m4a,3gp,3g2,mj2, from 'G:\Capture0000.mov':
    Metadata:
    creation_time : 2013-08-22 19:07:14
    Duration: 00:01:52.64, start: 0.000000, bitrate: 237715 kb/s
    Stream #0.0(eng): Data: tmcd / 0x64636D74
    Metadata:
    creation_time : 2013-08-22 19:07:14
    Stream #0.1(eng): Video: dnxhd, yuv422p10le, 1920x1080, 219980 kb/s, 29.97 fps, 29.97 tbr, 30k tbn
    Metadata:
    creation_time : 2013-08-22 19:07:14
    Stream #0.2(eng): Audio: pcm_s24le, 48000 Hz, 16 channels, s32, 18432 kb/s
    Metadata:
    creation_time : 2013-08-22 19:07:14
    [abuffer @ 02cbe920] Invalid channel layout 0x0.
    Error opening filters!
    Error transcoding of G:\Capture0000.mov

     
  • Zach

    Zach - 2014-01-20

    This is actually a bug in FFMPEG itself, as I ran in to it when trying to work on the same file with AnotherGUI, then running directly in ffmpeg

     
  • Zach

    Zach - 2014-03-09

    Now that audio filters are supported, using v2.7 these prores files now work fine.

    Using:
    pan=stereo|c0=c0|c1=c1

     
  • Zach

    Zach - 2014-03-09
     
    Last edit: Zach 2014-03-09

Get latest updates about Open Source Projects, Conferences and News.

Sign up for the SourceForge newsletter:





No, thanks