DVDStyler crashes

Help
2011-03-06
2012-11-20
1 2 > >> (Page 1 of 2)
  • Ulrich Walter

    Ulrich Walter - 2011-03-06

    Hello,

    I'm using Opensuse-Linux 11.2 64bit with actual updates.
    DVDStyler Version is 1.8.2.1-1.pm.3.6

    By start DVD-burning the message windows opens for just a second and than DVDStyler crashes without any error message. By starting DVDStyler from CLI the following messages in the console appear:

    Output #0, dvd, to '/home/uli/Temp/dvd-tmp/menu1-0.mpg_bg.mpg':
        Stream #0.0: Video: mpeg2video, yuv420p, 720x576 [PAR 16:15 DAR 4:3], 
    q=2-31, 6000 kb/s, 90k tbn, 25 tbc
        Stream #0.1: Audio: mp2, 48000 Hz, 2 channels, 64 kb/s
    [mp2 @ 0x137cbf0] Specified sample_fmt is not supported.
    [mpeg2video @ 0x137ee80] rc buffer underflow                                                                                            
    Speicherzugriffsfehler
    

    In German Opensuse Mailinglist someone said it's a problem based on changed topic http://lists.mplayerhq.hu/pipermail/ffmpeg-commits/2011-February/000308.html

    Maybe anyone here is able to help me get DVDStyler running again, it's a very fine stuff!

    Greetings
    Uli

     
  • Dallas Rosin

    Dallas Rosin - 2011-03-11

    I am having the exact same problem, it just showed up a couple of weeks ago when I updated my software.

    I am running SUSE 11.3, when I try to make an ISO, it doesn't get very far in the process, only a couple seconds:

    (d:13067): Gtk-WARNING **: gtk_menu_attach_to_widget(): menu already attached to GtkMenuItem

    (d:13067): Gtk-WARNING **: gtk_menu_attach_to_widget(): menu already attached to GtkMenuItem

    (d:13067): Gtk-WARNING **: gtk_menu_attach_to_widget(): menu already attached to GtkMenuItem

    (d:13067): Gtk-WARNING **: gtk_menu_attach_to_widget(): menu already attached to GtkMenuItem
    max_analyze_duration reached
    Output #0, dvd, to '/tmp/dvd-tmp/menu1-0.mpg_bg.mpg':
        Stream #0.0: Video: mpeg2video, yuv420p, 720x480 , q=2-31, 1000 kb/s, 90k tbn, 29.97 tbc
        Stream #0.1: Audio: ac3, 48000 Hz, 2 channels, 64 kb/s
    Specified sample_fmt is not supported.
    rc buffer underflow
    Segmentation fault

     
  • Wolfgang Schmidt

    same do i.
    using openSUSE 11.3 (i586)

    even with new version DVDStyler-1.8.2.1-5.pm.8.5.i586

    error message:

    (d:7087): Gtk-WARNING **: gtk_menu_attach_to_widget(): menu already attached to GtkMenuItem
    (d:7087): Gtk-WARNING **: gtk_menu_attach_to_widget(): menu already attached to GtkMenuItem
    (d:7087): Gtk-WARNING **: gtk_menu_attach_to_widget(): menu already attached to GtkMenuItem
    (d:7087): Gtk-WARNING **: gtk_menu_attach_to_widget(): menu already attached to GtkMenuItem
    [mpeg @ 0x856d000] max_analyze_duration reached
    [mpeg @ 0x8577850] max_analyze_duration reached                                                                                                             
    Output #0, dvd, to '/tmp/dvd-tmp/menu1-0.mpg_bg.mpg':                                                                                                       
        Stream #0.0: Video: mpeg2video, yuv420p, 720x576 [PAR 64:45 DAR 16:9], q=2-31, 6000 kb/s, 90k tbn, 25 tbc
        Stream #0.1: Audio: mp2, 48000 Hz, 2 channels, 64 kb/s
    [mp2 @ 0x86723c0] Specified sample_fmt is not supported.
    [mpeg2video @ 0x8674bc0] rc buffer underflow                                                                                                                
    Speicherzugriffsfehler
    

    tcprobe says following about the source file:

         aspect ratio: 16:9 (*)
           frame rate: -f 25.000 [25.000] frc=3 
                       PTS=0.2647, frame_time=40ms bitrate=2641 kbps
          audio track: -a 0 [0] -e 48000,16,2 [48000,16,2] -n 0x50 [0x2000] (*)
                       PTS=0.2647, bitrate=192 kbps
                       -D 0 --av_fine_ms 0 (frames & ms) [0] [0]
    
     
  • palmfron

    palmfron - 2011-04-01

    Same here on Arch (i686) 2.6.37.5-1

    DVDStyler v1.8.2.1
    Linux 2.6.37-ARCH i686
    FFmpeg: libavformat 52.94.0, libavcodec 52.108.0, libavutil 50.36.0
    Prepare
    Cleaning temporary directory
    Search for transcoded files in cache
    Generating menus
    Generating menu 1 of 4
    Prepare
    Create menu mpeg
    Output #0, dvd, to '/tmp/dvd-tmp/menu1-0.mpg_bg.mpg':
        Stream #0.0: Video: mpeg2video, yuv420p, 720x480 , q=2-31, 6000 kb/s, 90k tbn, 29.97 tbc
        Stream #0.1: Audio: ac3, 48000 Hz, 2 channels, 64 kb/s
    Specified sample_fmt is not supported.
    rc buffer underflow
    Segmentation fault

     
  • Wolfgang Schmidt

    nothing changed after installing the newest updates from packman:

    DVDStyler-1.8.2.1-5.pm.8.7.i586
    ffmpeg-0.6.201103092102git-1.pm.2.8.i586
    libavcodec52-0.6.201103092102git-1.pm.2.8.i586
    libavformat52-0.6.201103092102git-1.pm.2.8.i586

     
  • Alex Thuering

    Alex Thuering - 2011-04-01

    Please post backtracing log, see FAQCrash

     
  • Wolfgang Schmidt

    sorry, but make aborts with following message:

    gcc: dvdvml.c: Datei oder Verzeichnis nicht gefunden
    gcc: no input files
    make[2]: *** [dvdvml.o] Fehler 1
    make[2]: Leaving directory `/home/wolle/download/DVDStyler-src/DVDStyler-1.8.2.1/src'
    make[1]: *** [all-recursive] Fehler 1
    make[1]: Leaving directory `/home/wolle/download/DVDStyler-src/DVDStyler-1.8.2.1/src'
    make: *** [all-recursive] Fehler 1
    
     
  • Alex Thuering

    Alex Thuering - 2011-04-01

    dvdvml.c -> try DVDStyler 1.8.3 rc 2

     
  • Wolfgang Schmidt

    i had no "lex".
    make went thru after having installed flex.

    here is the backtracing of gdb:

    Program received signal SIGSEGV, Segmentation fault.
    0xb634bbf5 in avcodec_encode_audio () from /usr/lib/libavcodec.so.52
    (gdb) bt
    #0  0xb634bbf5 in avcodec_encode_audio () from /usr/lib/libavcodec.so.52
    #1  0x08095ece in wxFfmpegMediaEncoder::writeAudioFrame (this=0xbfffd5bc) at mediaenc_ffmpeg.cpp:339
    #2  0x08096203 in wxFfmpegMediaEncoder::EncodeImage (this=0xbfffd5bc, image=<incomplete type>, frames=100, canceled=0xbfffdd94) at mediaenc_ffmpeg.cpp:324
    #3  0x0812d2ae in ProgressDlg::GenerateMenu (this=0xbfffdb98, menu=0x846a4b8, widescreenType=wtNOPANSCAN, menuFile=..., audioFormat=afMP2, audioFile=..., videoBitrate=8000) at ProgressDlg.cpp:1261
    #4  0x0812ea81 in ProgressDlg::GenerateMenus (this=0xbfffdb98, menuVobs=..., menuWSTypes=..., menuSubSteps=85, dvd=0x8443848) at ProgressDlg.cpp:623
    #5  0x0812f1d9 in ProgressDlg::Run (this=0xbfffdb98, burnDlg=0xbfffd948, dvd=0x8443848) at ProgressDlg.cpp:561
    #6  0x0812fa47 in ProgressDlg::Start (this=0xbfffdb98, burnDlg=0xbfffd948, dvd=0x8443848) at ProgressDlg.cpp:389
    #7  0x08138d1e in MainWin::Burn (this=0x8314ed0, autoStart=false) at MainWin.cpp:898
    #8  0xb79a36c9 in wxAppConsole::HandleEvent(wxEvtHandler*, void (wxEvtHandler::*)(wxEvent&), wxEvent&) const () from /usr/lib/libwx_baseu-2.8.so.0
    #9  0xb7a38ada in wxEvtHandler::ProcessEventIfMatches(wxEventTableEntryBase const&, wxEvtHandler*, wxEvent&) () from /usr/lib/libwx_baseu-2.8.so.0
    #10 0xb7a38c6b in wxEventHashTable::HandleEvent(wxEvent&, wxEvtHandler*) () from /usr/lib/libwx_baseu-2.8.so.0
    #11 0xb7a39031 in wxEvtHandler::ProcessEvent(wxEvent&) () from /usr/lib/libwx_baseu-2.8.so.0
    #12 0xb7df2ac3 in wxWindowBase::TryParent(wxEvent&) () from /usr/lib/libwx_gtk2u_core-2.8.so.0
    #13 0xb7a38fd6 in wxEvtHandler::ProcessEvent(wxEvent&) () from /usr/lib/libwx_baseu-2.8.so.0
    #14 0xb7dea237 in wxToolBarBase::OnLeftClick(int, bool) () from /usr/lib/libwx_gtk2u_core-2.8.so.0
    #15 0xb7d64c52 in ?? () from /usr/lib/libwx_gtk2u_core-2.8.so.0
    #16 0xb6d1735c in g_cclosure_marshal_VOID__VOID () from /usr/lib/libgobject-2.0.so.0
    #17 0xb6cfdf42 in g_closure_invoke () from /usr/lib/libgobject-2.0.so.0
    #18 0xb6d0d7cc in ?? () from /usr/lib/libgobject-2.0.so.0
    #19 0xb6d169c4 in g_signal_emit_valist () from /usr/lib/libgobject-2.0.so.0
    #20 0xb6d16b57 in g_signal_emit () from /usr/lib/libgobject-2.0.so.0
    #21 0xb71779fa in gtk_button_clicked () from /usr/lib/libgtk-x11-2.0.so.0
    #22 0xb7178dc8 in ?? () from /usr/lib/libgtk-x11-2.0.so.0
    #23 0xb6d1735c in g_cclosure_marshal_VOID__VOID () from /usr/lib/libgobject-2.0.so.0
    #24 0xb6cfc7be in ?? () from /usr/lib/libgobject-2.0.so.0
    #25 0xb6cfdf42 in g_closure_invoke () from /usr/lib/libgobject-2.0.so.0
    #26 0xb6d0cf0f in ?? () from /usr/lib/libgobject-2.0.so.0
    #27 0xb6d169c4 in g_signal_emit_valist () from /usr/lib/libgobject-2.0.so.0
    #28 0xb6d16b57 in g_signal_emit () from /usr/lib/libgobject-2.0.so.0
    #29 0xb717791a in gtk_button_released () from /usr/lib/libgtk-x11-2.0.so.0
    #30 0xb7177963 in ?? () from /usr/lib/libgtk-x11-2.0.so.0
    #31 0xb7232b04 in ?? () from /usr/lib/libgtk-x11-2.0.so.0
    #32 0xb6cfc7be in ?? () from /usr/lib/libgobject-2.0.so.0
    #33 0xb6cfdf42 in g_closure_invoke () from /usr/lib/libgobject-2.0.so.0
    #34 0xb6d0d5bf in ?? () from /usr/lib/libgobject-2.0.so.0
    #35 0xb6d167ba in g_signal_emit_valist () from /usr/lib/libgobject-2.0.so.0
    #36 0xb6d16b57 in g_signal_emit () from /usr/lib/libgobject-2.0.so.0
    #37 0xb7365596 in ?? () from /usr/lib/libgtk-x11-2.0.so.0
    #38 0xb7230c8d in gtk_propagate_event () from /usr/lib/libgtk-x11-2.0.so.0
    #39 0xb723108f in gtk_main_do_event () from /usr/lib/libgtk-x11-2.0.so.0
    #40 0xb70a21ba in ?? () from /usr/lib/libgdk-x11-2.0.so.0
    #41 0xb6c3cb49 in g_main_context_dispatch () from /usr/lib/libglib-2.0.so.0
    #42 0xb6c3d350 in ?? () from /usr/lib/libglib-2.0.so.0
    #43 0xb6c3da0f in g_main_loop_run () from /usr/lib/libglib-2.0.so.0
    #44 0xb722fd59 in gtk_main () from /usr/lib/libgtk-x11-2.0.so.0
    #45 0xb7ce032a in wxEventLoop::Run() () from /usr/lib/libwx_gtk2u_core-2.8.so.0
    #46 0xb7d70dad in wxAppBase::MainLoop() () from /usr/lib/libwx_gtk2u_core-2.8.so.0
    #47 0xb7d7069f in wxAppBase::OnRun() () from /usr/lib/libwx_gtk2u_core-2.8.so.0
    #48 0xb79dacf2 in wxEntry(int&, wchar_t**) () from /usr/lib/libwx_baseu-2.8.so.0
    #49 0xb79dada6 in wxEntry(int&, char**) () from /usr/lib/libwx_baseu-2.8.so.0
    #50 0x0814335b in main (argc=1, argv=0xbfffef94) at dvdstyler.cpp:49
    
     
  • palmfron

    palmfron - 2011-04-03

    System: Arch (i686) 2.6.37.5-1

    DVDStyler v1.8.2.1
    Linux 2.6.37-ARCH i686
    FFmpeg: libavformat 52.94.0, libavcodec 52.108.0, libavutil 50.36.0

    Here's my backtracing log:

    Program received signal SIGSEGV, Segmentation fault.
    0xb6efacc5 in avcodec_encode_audio () from /usr/lib/libavcodec.so.52
    (gdb) bt
    #0  0xb6efacc5 in avcodec_encode_audio () from /usr/lib/libavcodec.so.52
    #1  0x08090c5e in ?? ()
    #2  0x08090f8c in ?? ()
    #3  0x08121b56 in ?? ()
    #4  0x081232d4 in ?? ()
    #5  0x081239f1 in ?? ()
    #6  0x08124297 in ?? ()
    #7  0x0812ca6a in ?? ()
    #8  0xb7a302d8 in wxAppConsole::HandleEvent(wxEvtHandler*, void (wxEvtHandler::*)(wxEvent&), wxEvent&) const ()
       from /usr/lib/libwx_baseu-2.8.so.0
    #9  0xb7ac2949 in wxEvtHandler::ProcessEventIfMatches(wxEventTableEntryBase const&, wxEvtHandler*, wxEvent&) ()
       from /usr/lib/libwx_baseu-2.8.so.0
    #10 0xb7ac2ac4 in wxEventHashTable::HandleEvent(wxEvent&, wxEvtHandler*) () from /usr/lib/libwx_baseu-2.8.so.0
    #11 0xb7ac2e77 in wxEvtHandler::ProcessEvent(wxEvent&) () from /usr/lib/libwx_baseu-2.8.so.0
    #12 0xb7e1e4e2 in wxWindowBase::TryParent(wxEvent&) () from /usr/lib/libwx_gtk2u_core-2.8.so.0
    #13 0xb7ac2e16 in wxEvtHandler::ProcessEvent(wxEvent&) () from /usr/lib/libwx_baseu-2.8.so.0
    #14 0xb7e1603e in wxToolBarBase::OnLeftClick(int, bool) () from /usr/lib/libwx_gtk2u_core-2.8.so.0
    #15 0xb7d9588d in ?? () from /usr/lib/libwx_gtk2u_core-2.8.so.0
    #16 0xb779ec4c in g_cclosure_marshal_VOID__VOID () from /usr/lib/libgobject-2.0.so.0
    #17 0xb7782a72 in g_closure_invoke () from /usr/lib/libgobject-2.0.so.0
    #18 0xb77958a0 in ?? () from /usr/lib/libgobject-2.0.so.0
    #19 0xb779e306 in g_signal_emit_valist () from /usr/lib/libgobject-2.0.so.0
    #20 0xb779e4b2 in g_signal_emit () from /usr/lib/libgobject-2.0.so.0
    #21 0xb6518d2a in gtk_button_clicked () from /usr/lib/libgtk-x11-2.0.so.0
    #22 0xb651a0f8 in ?? () from /usr/lib/libgtk-x11-2.0.so.0
    #23 0xb779ec4c in g_cclosure_marshal_VOID__VOID () from /usr/lib/libgobject-2.0.so.0
    #24 0xb77813c7 in ?? () from /usr/lib/libgobject-2.0.so.0
    #25 0xb7782a72 in g_closure_invoke () from /usr/lib/libgobject-2.0.so.0
    ---Type <return> to continue, or q <return> to quit---
    #26 0xb779501e in ?? () from /usr/lib/libgobject-2.0.so.0
    #27 0xb779e306 in g_signal_emit_valist () from /usr/lib/libgobject-2.0.so.0
    #28 0xb779e4b2 in g_signal_emit () from /usr/lib/libgobject-2.0.so.0
    #29 0xb6518c4a in gtk_button_released () from /usr/lib/libgtk-x11-2.0.so.0
    #30 0xb6518c93 in ?? () from /usr/lib/libgtk-x11-2.0.so.0
    #31 0xb65d4374 in ?? () from /usr/lib/libgtk-x11-2.0.so.0
    #32 0xb77813c7 in ?? () from /usr/lib/libgobject-2.0.so.0
    #33 0xb7782a72 in g_closure_invoke () from /usr/lib/libgobject-2.0.so.0
    #34 0xb77956a5 in ?? () from /usr/lib/libgobject-2.0.so.0
    #35 0xb779e08b in g_signal_emit_valist () from /usr/lib/libgobject-2.0.so.0
    #36 0xb779e4b2 in g_signal_emit () from /usr/lib/libgobject-2.0.so.0
    #37 0xb6707a76 in ?? () from /usr/lib/libgtk-x11-2.0.so.0
    #38 0xb65d24ed in gtk_propagate_event () from /usr/lib/libgtk-x11-2.0.so.0
    #39 0xb65d28ef in gtk_main_do_event () from /usr/lib/libgtk-x11-2.0.so.0
    #40 0xb6460b3a in ?? () from /usr/lib/libgdk-x11-2.0.so.0
    #41 0xb630fb72 in g_main_context_dispatch () from /usr/lib/libglib-2.0.so.0
    #42 0xb6310350 in ?? () from /usr/lib/libglib-2.0.so.0
    #43 0xb6310a1b in g_main_loop_run () from /usr/lib/libglib-2.0.so.0
    #44 0xb65d15b9 in gtk_main () from /usr/lib/libgtk-x11-2.0.so.0
    #45 0xb7d177a8 in wxEventLoop::Run() () from /usr/lib/libwx_gtk2u_core-2.8.so.0
    #46 0xb7da154e in wxAppBase::MainLoop() () from /usr/lib/libwx_gtk2u_core-2.8.so.0
    #47 0xb7da0e91 in wxAppBase::OnRun() () from /usr/lib/libwx_gtk2u_core-2.8.so.0
    #48 0xb7a6609b in wxEntry(int&, wchar_t**) () from /usr/lib/libwx_baseu-2.8.so.0
    #49 0xb7a66147 in wxEntry(int&, char**) () from /usr/lib/libwx_baseu-2.8.so.0
    #50 0x0813622b in ?? ()
    #51 0xb68cedb6 in __libc_start_main () from /lib/libc.so.6
    #52 0x08065c11 in ?? ()
    
     
  • Anonymous - 2011-04-03

    osx - dvdstyler crash

    trying to add video files the program crashes

    error message :
    03/04/11 09:57:46 .org.dvdstyler.DVDStyler (process:1063): GLib-GObject-WARNING **: Two different plugins tried to register 'BasicEngineFc'.
    03/04/11 09:57:46 .org.dvdstyler.DVDStyler (process:1063): GLib-GObject-CRITICAL **: g_object_new: assertion `G_TYPE_IS_OBJECT (object_type)' failed
    03/04/11 09:57:46 .org.dvdstyler.DVDStyler (process:1063): GLib-GObject-WARNING **: Two different plugins tried to register 'BasicEngineFc'.
    03/04/11 09:57:46 .org.dvdstyler.DVDStyler (process:1063): GLib-GObject-CRITICAL **: g_object_new: assertion `G_TYPE_IS_OBJECT (object_type)' failed
    03/04/11 09:57:46 .org.dvdstyler.DVDStyler (process:1063): GLib-GObject-WARNING **: Two different plugins tried to register 'BasicEngineFc'.
    03/04/11 09:57:46 .org.dvdstyler.DVDStyler (process:1063): GLib-GObject-CRITICAL **: g_object_new: assertion `G_TYPE_IS_OBJECT (object_type)' failed
    03/04/11 09:57:46 .org.dvdstyler.DVDStyler (process:1063): GLib-GObject-WARNING **: Two different plugins tried to register 'BasicEngineFc'.
    03/04/11 09:57:46 .org.dvdstyler.DVDStyler (process:1063): GLib-GObject-CRITICAL **: g_object_new: assertion `G_TYPE_IS_OBJECT (object_type)' failed
    03/04/11 09:57:46 .org.dvdstyler.DVDStyler (process:1063): GLib-GObject-WARNING **: Two different plugins tried to register 'BasicEngineFc'.
    03/04/11 09:57:46 .org.dvdstyler.DVDStyler (process:1063): GLib-GObject-CRITICAL **: g_object_new: assertion `G_TYPE_IS_OBJECT (object_type)' failed
    03/04/11 09:57:46 .org.dvdstyler.DVDStyler (process:1063): GLib-GObject-WARNING **: Two different plugins tried to register 'BasicEngineFc'.
    03/04/11 09:57:46 .org.dvdstyler.DVDStyler (process:1063): GLib-GObject-CRITICAL **: g_object_new: assertion `G_TYPE_IS_OBJECT (object_type)' failed
    03/04/11 09:57:46 .org.dvdstyler.DVDStyler (process:1063): GLib-GObject-WARNING **: Two different plugins tried to register 'BasicEngineFc'.
    03/04/11 09:57:46 .org.dvdstyler.DVDStyler (process:1063): GLib-GObject-CRITICAL **: g_object_new: assertion `G_TYPE_IS_OBJECT (object_type)' failed
    03/04/11 09:57:47 .org.dvdstyler.DVDStyler (process:1063): GLib-GObject-WARNING **: Two different plugins tried to register 'BasicEngineFc'.
    03/04/11 09:57:47 .org.dvdstyler.DVDStyler (process:1063): GLib-GObject-CRITICAL **: g_object_new: assertion `G_TYPE_IS_OBJECT (object_type)' failed
    03/04/11 09:57:47 .org.dvdstyler.DVDStyler (process:1063): GLib-GObject-WARNING **: Two different plugins tried to register 'BasicEngineFc'.
    03/04/11 09:57:47 .org.dvdstyler.DVDStyler (process:1063): GLib-GObject-CRITICAL **: g_object_new: assertion `G_TYPE_IS_OBJECT (object_type)' failed
    03/04/11 09:57:47 .org.dvdstyler.DVDStyler (process:1063): GLib-GObject-WARNING **: Two different plugins tried to register 'BasicEngineFc'.
    03/04/11 09:57:47 .org.dvdstyler.DVDStyler (process:1063): GLib-GObject-CRITICAL **: g_object_new: assertion `G_TYPE_IS_OBJECT (object_type)' failed
    03/04/11 09:57:47 .org.dvdstyler.DVDStyler (process:1063): GLib-GObject-WARNING **: Two different plugins tried to register 'BasicEngineFc'.
    03/04/11 09:57:47 .org.dvdstyler.DVDStyler (process:1063): GLib-GObject-CRITICAL **: g_object_new: assertion `G_TYPE_IS_OBJECT (object_type)' failed
    03/04/11 09:57:47 .org.dvdstyler.DVDStyler (process:1063): GLib-GObject-WARNING **: Two different plugins tried to register 'BasicEngineFc'.
    03/04/11 09:57:47 .org.dvdstyler.DVDStyler (process:1063): GLib-GObject-CRITICAL **: g_object_new: assertion `G_TYPE_IS_OBJECT (object_type)' failed
    03/04/11 09:57:47 .org.dvdstyler.DVDStyler (process:1063): GLib-GObject-WARNING **: Two different plugins tried to register 'BasicEngineFc'.
    03/04/11 09:57:47 .org.dvdstyler.DVDStyler (process:1063): GLib-GObject-CRITICAL **: g_object_new: assertion `G_TYPE_IS_OBJECT (object_type)' failed
    03/04/11 09:57:47 .org.dvdstyler.DVDStyler (process:1063): GLib-GObject-WARNING **: Two different plugins tried to register 'BasicEngineFc'.
    03/04/11 09:57:47 .org.dvdstyler.DVDStyler (process:1063): GLib-GObject-CRITICAL **: g_object_new: assertion `G_TYPE_IS_OBJECT (object_type)' failed

     
  • Alex Thuering

    Alex Thuering - 2011-04-03

    Problem with the avcodec_encode_audio () is fixed in DVDStyler 1.8.3.
    Please test it.

     
  • Wolfgang Schmidt

    Unfortunately, the version 1.8.3rc2 acts in the same manner:

    [mpeg @ 0x86ab3b0] max_analyze_duration reached
    [mpeg @ 0x86b1f10] max_analyze_duration reached                                                                                                                                       
    Detaching after fork from child process 10705.                                                                                                                                        
    Detaching after fork from child process 10706.
    Output #0, dvd, to '/tmp/dvd-tmp/menu1-0.mpg_bg.mpg':
        Stream #0.0: Video: mpeg2video, yuv420p, 720x576 [PAR 64:45 DAR 16:9], q=2-31, 6000 kb/s, 90k tbn, 25 tbc
        Stream #0.1: Audio: mp2, 48000 Hz, 2 channels, 64 kb/s
    [mp2 @ 0x8714070] Specified sample_fmt is not supported.
    [mpeg2video @ 0x8409860] rc buffer underflow                                                                                                                                          
                                                                                                                                                                                          
    Program received signal SIGSEGV, Segmentation fault.
    0xb6339bf5 in avcodec_encode_audio () from /usr/lib/libavcodec.so.52
    (gdb) bt
    #0  0xb6339bf5 in avcodec_encode_audio () from /usr/lib/libavcodec.so.52
    #1  0x080980ae in wxFfmpegMediaEncoder::writeAudioFrame (this=0xbfffd58c) at mediaenc_ffmpeg.cpp:339
    #2  0x080983e3 in wxFfmpegMediaEncoder::EncodeImage (this=0xbfffd58c, image=<incomplete type>, frames=100, canceled=0xbfffdd84) at mediaenc_ffmpeg.cpp:324
    #3  0x0813a32e in ProgressDlg::GenerateMenu (this=0xbfffdb88, menu=0x8433120, widescreenType=wtNOPANSCAN, menuFile=..., audioFormat=afMP2, audioFile=..., videoBitrate=8000)
        at ProgressDlg.cpp:1304
    #4  0x0813bad1 in ProgressDlg::GenerateMenus (this=0xbfffdb88, menuVobs=..., menuWSTypes=..., menuSubSteps=85, dvd=0x85e6180) at ProgressDlg.cpp:630
    #5  0x0813c259 in ProgressDlg::Run (this=0xbfffdb88, burnDlg=0xbfffd938, dvd=0x85e6180) at ProgressDlg.cpp:568
    #6  0x0813cb37 in ProgressDlg::Start (this=0xbfffdb88, burnDlg=0xbfffd938, dvd=0x85e6180) at ProgressDlg.cpp:389
    #7  0x08145dde in MainWin::Burn (this=0x8325218, autoStart=false) at MainWin.cpp:897
    #8  0xb79916c9 in wxAppConsole::HandleEvent(wxEvtHandler*, void (wxEvtHandler::*)(wxEvent&), wxEvent&) const () from /usr/lib/libwx_baseu-2.8.so.0
    #9  0xb7a26ada in wxEvtHandler::ProcessEventIfMatches(wxEventTableEntryBase const&, wxEvtHandler*, wxEvent&) () from /usr/lib/libwx_baseu-2.8.so.0
    #10 0xb7a26c6b in wxEventHashTable::HandleEvent(wxEvent&, wxEvtHandler*) () from /usr/lib/libwx_baseu-2.8.so.0
    #11 0xb7a27031 in wxEvtHandler::ProcessEvent(wxEvent&) () from /usr/lib/libwx_baseu-2.8.so.0
    #12 0xb7df2ac3 in wxWindowBase::TryParent(wxEvent&) () from /usr/lib/libwx_gtk2u_core-2.8.so.0
    #13 0xb7a26fd6 in wxEvtHandler::ProcessEvent(wxEvent&) () from /usr/lib/libwx_baseu-2.8.so.0
    #14 0xb7dea237 in wxToolBarBase::OnLeftClick(int, bool) () from /usr/lib/libwx_gtk2u_core-2.8.so.0
    #15 0xb7d64c52 in ?? () from /usr/lib/libwx_gtk2u_core-2.8.so.0
    #16 0xb6d0535c in g_cclosure_marshal_VOID__VOID () from /usr/lib/libgobject-2.0.so.0
    #17 0xb6cebf42 in g_closure_invoke () from /usr/lib/libgobject-2.0.so.0
    #18 0xb6cfb7cc in ?? () from /usr/lib/libgobject-2.0.so.0
    #19 0xb6d049c4 in g_signal_emit_valist () from /usr/lib/libgobject-2.0.so.0
    #20 0xb6d04b57 in g_signal_emit () from /usr/lib/libgobject-2.0.so.0
    #21 0xb71649fa in gtk_button_clicked () from /usr/lib/libgtk-x11-2.0.so.0
    #22 0xb7165dc8 in ?? () from /usr/lib/libgtk-x11-2.0.so.0
    #23 0xb6d0535c in g_cclosure_marshal_VOID__VOID () from /usr/lib/libgobject-2.0.so.0
    #24 0xb6cea7be in ?? () from /usr/lib/libgobject-2.0.so.0
    #25 0xb6cebf42 in g_closure_invoke () from /usr/lib/libgobject-2.0.so.0
    #26 0xb6cfaf0f in ?? () from /usr/lib/libgobject-2.0.so.0
    #27 0xb6d049c4 in g_signal_emit_valist () from /usr/lib/libgobject-2.0.so.0
    #28 0xb6d04b57 in g_signal_emit () from /usr/lib/libgobject-2.0.so.0
    #29 0xb716491a in gtk_button_released () from /usr/lib/libgtk-x11-2.0.so.0
    #30 0xb7164963 in ?? () from /usr/lib/libgtk-x11-2.0.so.0
    #31 0xb721fb04 in ?? () from /usr/lib/libgtk-x11-2.0.so.0
    #32 0xb6cea7be in ?? () from /usr/lib/libgobject-2.0.so.0
    #33 0xb6cebf42 in g_closure_invoke () from /usr/lib/libgobject-2.0.so.0
    #34 0xb6cfb5bf in ?? () from /usr/lib/libgobject-2.0.so.0
    #35 0xb6d047ba in g_signal_emit_valist () from /usr/lib/libgobject-2.0.so.0
    #36 0xb6d04b57 in g_signal_emit () from /usr/lib/libgobject-2.0.so.0
    #37 0xb7352596 in ?? () from /usr/lib/libgtk-x11-2.0.so.0
    #38 0xb721dc8d in gtk_propagate_event () from /usr/lib/libgtk-x11-2.0.so.0
    #39 0xb721e08f in gtk_main_do_event () from /usr/lib/libgtk-x11-2.0.so.0
    #40 0xb708f1ba in ?? () from /usr/lib/libgdk-x11-2.0.so.0
    #41 0xb6c29b49 in g_main_context_dispatch () from /usr/lib/libglib-2.0.so.0
    #42 0xb6c2a350 in ?? () from /usr/lib/libglib-2.0.so.0
    #43 0xb6c2aa0f in g_main_loop_run () from /usr/lib/libglib-2.0.so.0
    #44 0xb721cd59 in gtk_main () from /usr/lib/libgtk-x11-2.0.so.0
    #45 0xb7ce032a in wxEventLoop::Run() () from /usr/lib/libwx_gtk2u_core-2.8.so.0
    #46 0xb7d70dad in wxAppBase::MainLoop() () from /usr/lib/libwx_gtk2u_core-2.8.so.0
    #47 0xb7d7069f in wxAppBase::OnRun() () from /usr/lib/libwx_gtk2u_core-2.8.so.0
    #48 0xb79c8cf2 in wxEntry(int&, wchar_t**) () from /usr/lib/libwx_baseu-2.8.so.0
    #49 0xb79c8da6 in wxEntry(int&, char**) () from /usr/lib/libwx_baseu-2.8.so.0
    #50 0x0815057b in main (argc=1, argv=0xbfffef84) at dvdstyler.cpp:49
    
     
  • sapo12

    sapo12 - 2011-04-05

    i had the same problem
    i found out, no problem anymore when put a audio in the vmmenu means right click, properties audio, then insert a xxx.mp3 file.
    Rg Martin

     
  • Wolfgang Schmidt

    i succeeded also with the same method.

    it looks like a problem of uninitialized variables or initialization order.

    regards Wolfgang

     
  • Rob

    Rob - 2011-04-08

    Now I am not extremely good at programming computer but I hope someone here can help me.

    I am using Windows XP with DVDStyler Version: 1.8.3 License Type: GPL

    Here is my problem I can prepare my project and then when I go to press burn the process begins and then stalls about a quarter the way through and the details roll along and then stops at: Stream #0.1 -> #0.01 and does not continue from there I left the program running for 24 hours and it never continues.

    I  hope I have given enough information to you and I greatly appreciate any of you taking the time to help me as I really think this product is the one that will fill my requirements. Please let me know if you need to know anything else. I have also tried this on an Vista machine and have had the same problem.

     
  • Wolfgang Schmidt

    hello,

    the workaround doesn't do it since newest rpm from packman: DVDStyler-1.8.3-1.pm.1.2.i586

    Format detected only with low score of 1, misdetection possible!                                                                                                                                                                             
    Format detected only with low score of 1, misdetection possible!                                                                                                                                                                             
    Format detected only with low score of 1, misdetection possible!                                                                                                                                                                             
    [mpeg @ 0x86b8d00] max_analyze_duration reached                                                                                                                                                                                              
    [mpeg @ 0x8792f00] max_analyze_duration reached                                                                                                                                                                                              
    [mpeg @ 0x879cfe0] max_analyze_duration reached                                                                                                                                                                                              
    [mpeg @ 0x8819030] max_analyze_duration reached                                                                                                                                                                                              
    Format detected only with low score of 1, misdetection possible!                                                                                                                                                                             
    Output #0, mpeg2video, to '/tmp/dvd-tmp/menu0-0.mpg_bg.m2v':                                                                                                                                                                                 
        Stream #0.0: Video: mpeg2video, yuv420p, 720x576 [PAR 64:45 DAR 16:9], q=2-31, 6000 kb/s, 90k tbn, 25 tbc                                                                                                                                
    [mpeg2video @ 0x87de900] rc buffer underflow                                                                                                                                                                                                 
    [mpegvideo @ 0x87e4b50] Estimating duration from bitrate, this may be inaccurate                                                                                                                                                             
    Format detected only with low score of 1, misdetection possible!
    
     
  • Alex Thuering

    Alex Thuering - 2011-04-11

    Hi,

    this is possibly another problem.
    And I need backtracing log to analyse it.

    Alex

     
  • Wolfgang Schmidt

    Debugged using DVDStyler-1.8.3-1.pm.1.3.src.rpm

    Starting program: /home/wolle/download/DVDStyler-src/DVDStyler-1.8.3/src/dvdstyler 
    Missing separate debuginfo for /lib/ld-linux.so.2
    Try: zypper install -C "debuginfo(build-id)=fbaee3f5e15417f014dc59b0561eb7192ff04c5c"
    Missing separate debuginfo for /usr/lib/libwx_gtk2u_html-2.8.so.0
    Try: zypper install -C "debuginfo(build-id)=c561c167cdc5386caa9d35dc00d3bf24d0477f4b"
    Missing separate debuginfo for /usr/lib/libwx_gtk2u_core-2.8.so.0
    Try: zypper install -C "debuginfo(build-id)=e59fc594d76f79e07132697fc34801e67b596d52"
    Missing separate debuginfo for /usr/lib/libwx_baseu_net-2.8.so.0
    Try: zypper install -C "debuginfo(build-id)=a8ea8b62e539419e398fdbb2d6a9ff02cb9b5b02"
    Missing separate debuginfo for /usr/lib/libwx_gtk2u_adv-2.8.so.0
    Try: zypper install -C "debuginfo(build-id)=5befe742018d4bedc58ca65b4d8003642575d245"
    Missing separate debuginfo for /usr/lib/libwx_gtk2u_media-2.8.so.0
    Try: zypper install -C "debuginfo(build-id)=bc686967f891819639ffa5890ad48225a0f83bff"
    Missing separate debuginfo for /usr/lib/libwx_baseu-2.8.so.0
    Try: zypper install -C "debuginfo(build-id)=56580ace0ab67d4d321d70b002d1c05e463b2211"
    Missing separate debuginfo for /usr/lib/libwxsvg.so.0
    Try: zypper install -C "debuginfo(build-id)=8521851a280f210a8bc07d50767af2f722120beb"
    Missing separate debuginfo for /usr/lib/libgnomeui-2.so.0
    Try: zypper install -C "debuginfo(build-id)=85f62a39e54618e2c427d9318325d61b5ff4a122"
    Missing separate debuginfo for /usr/lib/libSM.so.6
    Try: zypper install -C "debuginfo(build-id)=f928c52c0836d19d3e8ddd70684389490a54995c"
    Missing separate debuginfo for /usr/lib/libICE.so.6
    Try: zypper install -C "debuginfo(build-id)=f1668417afd726f19d87d5b56bcda12984c7cc25"
    Missing separate debuginfo for /usr/lib/libbonoboui-2.so.0
    Try: zypper install -C "debuginfo(build-id)=00ae81fb4bbd0711a447004794be3d8325b92143"
    Missing separate debuginfo for /usr/lib/libgnomevfs-2.so.0
    Try: zypper install -C "debuginfo(build-id)=2f97565240fd18f28c909aa9cdccd649ea6783ca"
    Missing separate debuginfo for /usr/lib/libgnomecanvas-2.so.0
    Try: zypper install -C "debuginfo(build-id)=05ebf5ee348aa4b384f6aa808bca99dad6291c08"
    Missing separate debuginfo for /usr/lib/libgnome-2.so.0
    Try: zypper install -C "debuginfo(build-id)=d181581172d81e408d95290054d120f362b5f110"
    Missing separate debuginfo for /lib/libpopt.so.0
    Try: zypper install -C "debuginfo(build-id)=0404e9482bbe22da1e18cb64810e0bbfbffee407"
    Missing separate debuginfo for /usr/lib/libbonobo-2.so.0
    Try: zypper install -C "debuginfo(build-id)=0039a4536dc648ffb95395dd984605fbaca385ee"
    Missing separate debuginfo for /usr/lib/libbonobo-activation.so.4
    Try: zypper install -C "debuginfo(build-id)=7b7a36274a5d3b8696fdff3a85de7fa169777a80"
    Missing separate debuginfo for /usr/lib/libORBit-2.so.0
    Try: zypper install -C "debuginfo(build-id)=e4d6022d8ca5ad1dc14260b4aa302b60567b285b"
    Missing separate debuginfo for /usr/lib/libart_lgpl_2.so.2
    Try: zypper install -C "debuginfo(build-id)=7af8adb0a9b713865a6ac0a7e09e0239796b8574"
    Missing separate debuginfo for /usr/lib/libgtk-x11-2.0.so.0
    Try: zypper install -C "debuginfo(build-id)=f4082b51d33b0780d2cc697146be51f9a41c7c7b"
    Missing separate debuginfo for /usr/lib/libgdk-x11-2.0.so.0
    Try: zypper install -C "debuginfo(build-id)=97201a3a361e066082d467c8054eb9e21d87603f"
    Missing separate debuginfo for /usr/lib/libatk-1.0.so.0
    Try: zypper install -C "debuginfo(build-id)=71031a5856ad3842a67ad9d475007e777a85ac4e"
    Missing separate debuginfo for /usr/lib/libgio-2.0.so.0
    Try: zypper install -C "debuginfo(build-id)=e665f84696f09e3d4a7a68b6ea116046a7770ef1"
    Missing separate debuginfo for /usr/lib/libpangoft2-1.0.so.0
    Try: zypper install -C "debuginfo(build-id)=ed0c980378f993b2e6e0f75293cfa301a9819af8"
    Missing separate debuginfo for /usr/lib/libgdk_pixbuf-2.0.so.0
    Try: zypper install -C "debuginfo(build-id)=00eb705008273bd3919054066133a3c7691591f7"
    Missing separate debuginfo for /usr/lib/libpangocairo-1.0.so.0
    Try: zypper install -C "debuginfo(build-id)=7e4773afc590bc259ad79c02a5efb3bba731bc70"
    Missing separate debuginfo for /usr/lib/libcairo.so.2
    Try: zypper install -C "debuginfo(build-id)=bdc295229d9c356b2ec2bdf5f8e9ca7c08937290"
    Missing separate debuginfo for /usr/lib/libpango-1.0.so.0
    Try: zypper install -C "debuginfo(build-id)=b63db38d40488c92e066181d413d68709ed25400"
    Missing separate debuginfo for /usr/lib/libfreetype.so.6
    Try: zypper install -C "debuginfo(build-id)=f7854380b1be9f69f5016405cd870d477113c6be"
    Missing separate debuginfo for /usr/lib/libfontconfig.so.1
    Try: zypper install -C "debuginfo(build-id)=0c83d3120f928034914aa7dcac5fa432ba81c196"
    Missing separate debuginfo for /usr/lib/libgconf-2.so.4
    Try: zypper install -C "debuginfo(build-id)=186040a404a4fe1e6bfe8685ad4e78c550e4d1af"
    Missing separate debuginfo for /usr/lib/libgmodule-2.0.so.0
    Try: zypper install -C "debuginfo(build-id)=e6c64dce9703ab5905ca27a3cad01e87c052b451"
    Missing separate debuginfo for /usr/lib/libgobject-2.0.so.0
    Try: zypper install -C "debuginfo(build-id)=6edcc702edc027ed48d6b1b81fbb76d21881df9b"
    Missing separate debuginfo for /usr/lib/libgthread-2.0.so.0
    Try: zypper install -C "debuginfo(build-id)=c3ddfb692c943f7b8f0cdb701a519cd58021cb4b"
    Missing separate debuginfo for /lib/librt.so.1
    Try: zypper install -C "debuginfo(build-id)=bbf8c6d2b93765386aea68bdc7705f0ed559fa4d"
    Missing separate debuginfo for /usr/lib/libglib-2.0.so.0
    Try: zypper install -C "debuginfo(build-id)=dd45e2c3d23118a2150728855c8182a9d3a2089a"
    Missing separate debuginfo for /usr/lib/libexif.so.12
    Try: zypper install -C "debuginfo(build-id)=9ea8703868171f2c4a20b6af0d93374522c5f50c"
    Missing separate debuginfo for /lib/libudev.so.0
    Try: zypper install -C "debuginfo(build-id)=3b71f04df8520383bdba5330db6b0e71bcbedcae"
    Missing separate debuginfo for /usr/lib/libstdc++.so.6
    Try: zypper install -C "debuginfo(build-id)=181385b3f6f58b2e13543468f07e08c5edd2cd86"
    Missing separate debuginfo for /lib/libm.so.6
    Try: zypper install -C "debuginfo(build-id)=cea8cd6cde71d5c31abbfd61e716cf37338e92f3"
    Missing separate debuginfo for /lib/libgcc_s.so.1
    Try: zypper install -C "debuginfo(build-id)=ea12a9f70518dd6b807755150f1d2c6ba8550fe1"
    Missing separate debuginfo for /lib/libpthread.so.0
    Try: zypper install -C "debuginfo(build-id)=9f6e60de92fe5ba3711a0b7188a194d4a3bf790c"
    [Thread debugging using libthread_db enabled]
    Missing separate debuginfo for /lib/libc.so.6
    Try: zypper install -C "debuginfo(build-id)=694c111567b7c83a6f1b97bb28f6687dbd0d3057"
    Missing separate debuginfo for /usr/lib/libjpeg.so.8
    Try: zypper install -C "debuginfo(build-id)=5656b9563c388beee6e716dbe832ecb4480895ba"
    Missing separate debuginfo for /usr/lib/libmspack.so.0
    Try: zypper install -C "debuginfo(build-id)=1ec5dbff5cd89d19cb73f714f6c403abe674a3ab"
    Missing separate debuginfo for /usr/lib/libXinerama.so.1
    Try: zypper install -C "debuginfo(build-id)=acd8fb224991963e0b82e6c0d970605787a34fd2"
    Missing separate debuginfo for /usr/lib/libXxf86vm.so.1
    Try: zypper install -C "debuginfo(build-id)=99f1a61cd3617b9cbea42b0b50d639df7c3e01d6"
    Missing separate debuginfo for /usr/lib/libtiff.so.3
    Try: zypper install -C "debuginfo(build-id)=0cc68a9765721d623ad6675101142279b615623c"
    Missing separate debuginfo for /lib/libz.so.1
    Try: zypper install -C "debuginfo(build-id)=afddd839a6c18dd308b04b5289c56cc3abd1384f"
    Missing separate debuginfo for /usr/lib/libgstreamer-0.10.so.0
    Try: zypper install -C "debuginfo(build-id)=f29705ad1de6fb6ac91ad7eec1389caf694b68b3"
    Missing separate debuginfo for /usr/lib/libgstinterfaces-0.10.so.0
    Try: zypper install -C "debuginfo(build-id)=a19d9ce89858017967e77bc0dbc4dee071b97477"
    Missing separate debuginfo for /lib/libdl.so.2
    Try: zypper install -C "debuginfo(build-id)=580696b460256b20961976ebf3b100e5a4c03c10"
    Missing separate debuginfo for /lib/libexpat.so.1
    Try: zypper install -C "debuginfo(build-id)=1b6ee46573a022eace0c3655f871a47cfd21869f"
    Missing separate debuginfo for /usr/lib/libgnome-keyring.so.0
    Try: zypper install -C "debuginfo(build-id)=c6fcba125a6dc37924c25139aa5068fb95255c05"
    Missing separate debuginfo for /lib/libuuid.so.1
    Try: zypper install -C "debuginfo(build-id)=6ff9c8838bc92ab347368af9073209bac1ef2966"
    Missing separate debuginfo for /usr/lib/libxml2.so.2
    Try: zypper install -C "debuginfo(build-id)=7df4af1098088f6cbd88e8db308ad88835f9b940"
    Missing separate debuginfo for /usr/lib/libX11.so.6
    Try: zypper install -C "debuginfo(build-id)=2c3a9425e850d10b19600005a839f3be3da842d3"
    Missing separate debuginfo for /usr/lib/libdbus-glib-1.so.2
    Try: zypper install -C "debuginfo(build-id)=4dd80f6143d7dfb95b3537ee969b49bb3eb09ae9"
    Missing separate debuginfo for /lib/libssl.so.1.0.0
    Try: zypper install -C "debuginfo(build-id)=21154f77c5076195b884bf4fef23115e4fa3e6e8"
    Missing separate debuginfo for /usr/lib/libavahi-glib.so.1
    Try: zypper install -C "debuginfo(build-id)=63ab67833303e9aa5eae08b19a9cdbcb274bcb58"
    Missing separate debuginfo for /usr/lib/libavahi-client.so.3
    Try: zypper install -C "debuginfo(build-id)=78e052f11c54dffd404bd2c9c94eea040525cc24"
    Missing separate debuginfo for /lib/libdbus-1.so.3
    Try: zypper install -C "debuginfo(build-id)=3b9b901503e50f57950afee9607afda36b517c2b"
    Missing separate debuginfo for /usr/lib/libavahi-common.so.3
    Try: zypper install -C "debuginfo(build-id)=c16e19159aafba20502d9e3b20dd91e86aebb5c6"
    Missing separate debuginfo for /lib/libresolv.so.2
    Try: zypper install -C "debuginfo(build-id)=e31b0c6ef67cd17db53a672233c2dea4fb8a068d"
    Missing separate debuginfo for /lib/libutil.so.1
    Try: zypper install -C "debuginfo(build-id)=f2aae04f3b52fa334fc443f4e4e80f58479c65af"
    Missing separate debuginfo for /usr/lib/libgailutil.so.18
    Try: zypper install -C "debuginfo(build-id)=28cd71e541eb6151f192ba95478edb80eb29625a"
    Missing separate debuginfo for /usr/lib/libesd.so.0
    Try: zypper install -C "debuginfo(build-id)=9ffde36abae676fbdbb4eca59967f62c79516fb1"
    Missing separate debuginfo for /usr/lib/libaudiofile.so.0
    Try: zypper install -C "debuginfo(build-id)=4b855f32fd7cce6595e354570e4bda5aae325404"
    Missing separate debuginfo for /usr/lib/libORBitCosNaming-2.so.0
    Try: zypper install -C "debuginfo(build-id)=4d86c8b9098b5c402d0ad06c0be801fbde947eda"
    Missing separate debuginfo for /usr/lib/libXfixes.so.3
    Try: zypper install -C "debuginfo(build-id)=975bdf8231edbb5e2c8fea030c06efc5bf2ef8ba"
    Missing separate debuginfo for /usr/lib/libXext.so.6
    Try: zypper install -C "debuginfo(build-id)=0f5d7757c03e258515be2aa8f374d6d5a09e7942"
    Missing separate debuginfo for /usr/lib/libXrender.so.1
    Try: zypper install -C "debuginfo(build-id)=97f25e8fb03d1b3b24a3cc6681bf1b17048a18fe"
    Missing separate debuginfo for /usr/lib/libXi.so.6
    Try: zypper install -C "debuginfo(build-id)=791cbb209be7fcfb4bb01ca59bafbd8533f953b2"
    Missing separate debuginfo for /usr/lib/libXrandr.so.2
    Try: zypper install -C "debuginfo(build-id)=13fc4cae1eafb995395643048d62493dccbf928b"
    Missing separate debuginfo for /usr/lib/libXcursor.so.1
    Try: zypper install -C "debuginfo(build-id)=4701d2239ac35c44ea4a2290190e527f5b9b93bd"
    Missing separate debuginfo for /usr/lib/libXcomposite.so.1
    Try: zypper install -C "debuginfo(build-id)=7c37cf80a153df403a5441408fa04b1c171c55ca"
    Missing separate debuginfo for /usr/lib/libXdamage.so.1
    Try: zypper install -C "debuginfo(build-id)=af6d733513aa6b0c55ee7f8908389b612b74c524"
    Missing separate debuginfo for /lib/libselinux.so.1
    Try: zypper install -C "debuginfo(build-id)=f5d83fe790e94bc334548f9ce22637dcd758b0fe"
    Missing separate debuginfo for /usr/lib/libpixman-1.so.0
    Try: zypper install -C "debuginfo(build-id)=310f7b0555d6577dbda65c5b4a47adb969e78951"
    Missing separate debuginfo for /usr/lib/libpng14.so.14
    Try: zypper install -C "debuginfo(build-id)=f933e11c95c69ff0be82aa26a3a3de5b779bac15"
    Missing separate debuginfo for /usr/lib/libxcb-render-util.so.0
    Try: zypper install -C "debuginfo(build-id)=a62793136267246fd0cf30ee28c624f47e5c9990"
    Missing separate debuginfo for /usr/lib/libxcb-render.so.0
    Try: zypper install -C "debuginfo(build-id)=45432dcc330d89f42c3f3f47d06758c0ea382606"
    Missing separate debuginfo for /usr/lib/libxcb.so.1
    Try: zypper install -C "debuginfo(build-id)=7621112f0fa6ddfc8cb3dd76cdcd4cc3866c2f26"
    Missing separate debuginfo for /lib/libpcre.so.0
    Try: zypper install -C "debuginfo(build-id)=0b87037442a3442aa20708aeda1f7381cdff6cb2"
    Missing separate debuginfo for /usr/lib/librtmp.so.0
    Try: zypper install -C "debuginfo(build-id)=cca65059f2f6c948f9c60f7c28e7a190f86fd5a6"
    Missing separate debuginfo for /lib/libbz2.so.1
    Try: zypper install -C "debuginfo(build-id)=5f53fc12faf8ffc3361196b9124033aa663ddfd1"
    Missing separate debuginfo for /usr/lib/libxvidcore.so.4
    Try: zypper install -C "debuginfo(build-id)=8e5eb28aee0b02f946c1308266ab1dc60ac7bb8e"
    Missing separate debuginfo for /usr/lib/libvpx.so.0
    Try: zypper install -C "debuginfo(build-id)=c96e3515cfeb68ad986aac2cc95c4058fede6671"
    Missing separate debuginfo for /usr/lib/libvorbisenc.so.2
    Try: zypper install -C "debuginfo(build-id)=abec7bf627db7cb68888197b0774c8cd1e65de86"
    Missing separate debuginfo for /usr/lib/libvorbis.so.0
    Try: zypper install -C "debuginfo(build-id)=a6a623945c578c8ec14ab2a42bda4210a6102b81"
    Missing separate debuginfo for /usr/lib/libtheoraenc.so.1
    Try: zypper install -C "debuginfo(build-id)=ef57b4e74e28fbfd6f027d9d6f4154d39e722174"
    Missing separate debuginfo for /usr/lib/libtheoradec.so.1
    Try: zypper install -C "debuginfo(build-id)=2cda57e0979c03f1b6f5755dcddb228dfda6274a"
    Missing separate debuginfo for /usr/lib/libspeex.so.1
    Try: zypper install -C "debuginfo(build-id)=c5d5cc6bb55a806d7aba3859275550ba05f2bb33"
    Missing separate debuginfo for /usr/lib/libschroedinger-1.0.so.0
    Try: zypper install -C "debuginfo(build-id)=7ee9518e0cc30aae66de5becf68a586203b1f819"
    Missing separate debuginfo for /usr/lib/libmp3lame.so.0
    Try: zypper install -C "debuginfo(build-id)=1072aaac5c9dc85ccb1c7b2c4efd83e9bef77675"
    Missing separate debuginfo for /usr/lib/libgsm.so.1
    Try: zypper install -C "debuginfo(build-id)=fbd820125ea8ad5e4ca7d6e6a31322efdf91f8cc"
    Missing separate debuginfo for /usr/lib/libdirac_encoder.so.0
    Try: zypper install -C "debuginfo(build-id)=bf3e9d538d98d372342c91b0e74086494c7d40cf"
    Missing separate debuginfo for /lib/libgcrypt.so.11
    Try: zypper install -C "debuginfo(build-id)=425445d9eaa1549c7fdff0492feb935526f1137e"
    Missing separate debuginfo for /lib/libcrypto.so.1.0.0
    Try: zypper install -C "debuginfo(build-id)=d5b894948022c037c484a97ead71026dc2ca7785"
    Missing separate debuginfo for /usr/lib/libasound.so.2
    Try: zypper install -C "debuginfo(build-id)=99c46b8021a9635bc11219d9515a0a1c91aa2d39"
    Missing separate debuginfo for /usr/lib/libXau.so.6
    Try: zypper install -C "debuginfo(build-id)=dd294ee6e601a287e0df9a436ddd3a668773d54f"
    Missing separate debuginfo for /usr/lib/libogg.so.0
    Try: zypper install -C "debuginfo(build-id)=4f41e91040670543e3a9ca18c45bc0395201ba8a"
    Missing separate debuginfo for /usr/lib/liborc-0.4.so.0
    Try: zypper install -C "debuginfo(build-id)=66579de19b3d88dde78dd999c4d9514866e4831b"
    Missing separate debuginfo for /lib/libgpg-error.so.0
    Try: zypper install -C "debuginfo(build-id)=d93f348aad8dff568c2ad509b804ee0334e460e3"
    Missing separate debuginfo for /usr/lib/gconv/ISO8859-15.so
    Try: zypper install -C "debuginfo(build-id)=39ab3248017812b0e5beb7255387c878eb1124dd"
    Missing separate debuginfo for /usr/lib/gconv/UTF-32.so
    Try: zypper install -C "debuginfo(build-id)=7458eae1e291eac920edf4ddb0dea3d4237ec761"
    Missing separate debuginfo for /usr/lib/gconv/ISO8859-1.so
    Try: zypper install -C "debuginfo(build-id)=79b0ebed499fe1bff9b7c6b3fd62d493835874a1"
    Detaching after fork from child process 15458.
    Detaching after fork from child process 15459.
    Detaching after fork from child process 15460.
    Missing separate debuginfo for /usr/lib/gtk-2.0/2.10.0/engines/libpixmap.so
    Try: zypper install -C "debuginfo(build-id)=8f05cc1144841c321c6896b67ae74f07557d7160"
    Missing separate debuginfo for /usr/lib/gtk-2.0/2.10.0/immodules/im-cedilla.so
    Try: zypper install -C "debuginfo(build-id)=2eabd40e576a5b2e4f99fe4ad9346d1a91734c3b"
    Missing separate debuginfo for /usr/lib/gtk-2.0/2.10.0/loaders/libpixbufloader-png.so
    Try: zypper install -C "debuginfo(build-id)=fb5214b0425cbaf61b299cf2ff175389dece4af8"
    Missing separate debuginfo for /usr/lib/pango/1.6.0/modules/pango-basic-fc.so
    Try: zypper install -C "debuginfo(build-id)=238d020b72f21d92bcdb464ca82decc25d3df069"
    Detaching after fork from child process 15461.
    Detaching after fork from child process 15462.
    Detaching after fork from child process 15463.
    Detaching after fork from child process 15464.
    Detaching after fork from child process 15465.
    (/:15455): Gtk-WARNING **: gtk_menu_attach_to_widget(): menu already attached to GtkMenuItem
    (/:15455): Gtk-WARNING **: gtk_menu_attach_to_widget(): menu already attached to GtkMenuItem
    (/:15455): Gtk-WARNING **: gtk_menu_attach_to_widget(): menu already attached to GtkMenuItem
    (/:15455): Gtk-WARNING **: gtk_menu_attach_to_widget(): menu already attached to GtkMenuItem
    Missing separate debuginfo for /usr/lib/gnome-vfs-2.0/modules/libfile.so
    Try: zypper install -C "debuginfo(build-id)=9fd7a0fd0b479572c29eaa0871498e9256ee2510"
    Missing separate debuginfo for /lib/libacl.so.1
    Try: zypper install -C "debuginfo(build-id)=1960e49179e41772c41bd40168ce5f35d7ee07c6"
    Missing separate debuginfo for /usr/lib/libfam.so.0
    Try: zypper install -C "debuginfo(build-id)=9c00c4bf159ed8f800b380c932ed52087fc5819f"
    Missing separate debuginfo for /lib/libattr.so.1
    Try: zypper install -C "debuginfo(build-id)=804da74d5e7f0e4295fb5494eecb14664296b3d9"
    Missing separate debuginfo for /usr/lib/gtk-2.0/2.10.0/loaders/libpixbufloader-xpm.so
    Try: zypper install -C "debuginfo(build-id)=eeb58f9da3a67f427d8d4a26dc2f982296251011"
    [mpeg @ 0x85ec000] max_analyze_duration reached
    [mpeg @ 0x85ef740] max_analyze_duration reached                                                                                                     
    [mpeg @ 0x8638b00] max_analyze_duration reached                                                                                                     
    [mpeg @ 0x86983b0] max_analyze_duration reached                                                                                                     
    Detaching after fork from child process 15475.                                                                                                      
    Detaching after fork from child process 15476.
    Output #0, dvd, to '/tmp/dvd-tmp/menu1-0.mpg_bg.mpg':
        Stream #0.0: Video: mpeg2video, yuv420p, 720x576 [PAR 64:45 DAR 16:9], q=2-31, 6000 kb/s, 90k tbn, 25 tbc
        Stream #0.1: Audio: mp2, 48000 Hz, 2 channels, s16, 64 kb/s
    [New Thread 0xb3ce4b70 (LWP 15477)]
    [New Thread 0xb34e3b70 (LWP 15478)]
    [New Thread 0xb2a89b70 (LWP 15479)]
    [New Thread 0xb2288b70 (LWP 15480)]
    [mpeg2video @ 0x8802330] rc buffer underflow
    [Thread 0xb34e3b70 (LWP 15478) exited]                                                                                                              
    [Thread 0xb3ce4b70 (LWP 15477) exited]
    [Thread 0xb2a89b70 (LWP 15479) exited]
    [Thread 0xb2288b70 (LWP 15480) exited]
    Detaching after fork from child process 15482.
    Program received signal SIGPIPE, Broken pipe.
    0xffffe424 in __kernel_vsyscall ()
    (gdb) bt
    #0  0xffffe424 in __kernel_vsyscall ()
    #1  0xb5e070ab in write () from /lib/libpthread.so.0
    #2  0xb79ae923 in wxFile::Write(void const*, unsigned int) () from /usr/lib/libwx_baseu-2.8.so.0
    #3  0xb7a01bf5 in wxFileOutputStream::OnSysWrite(void const*, unsigned int) () from /usr/lib/libwx_baseu-2.8.so.0
    #4  0xb79e5420 in wxOutputStream::Write(void const*, unsigned int) () from /usr/lib/libwx_baseu-2.8.so.0
    #5  0x08156993 in DoPutToStream (this=0x8681f00) at PipeExecute.cpp:127
    #6  PipeProcess::HasInput (this=0x8681f00) at PipeExecute.cpp:150
    #7  0x08156671 in wxPipeExecute::Execute (this=0xbfffd47c, command=..., inputFile=..., outputFile=...) at PipeExecute.cpp:295
    #8  0x08135b9c in Execute (this=0xbfffdb98, command=..., inputFile=..., outputFile=...) at ProgressDlg.cpp:53
    #9  ProgressDlg::Exec (this=0xbfffdb98, command=..., inputFile=..., outputFile=...) at ProgressDlg.cpp:1475
    #10 0x0813b383 in ProgressDlg::GenerateMenu (this=0xbfffdb98, menu=0x85ef358, widescreenType=wtNOPANSCAN, menuFile=..., audioFormat=afMP2, 
        audioFile=..., videoBitrate=4500) at ProgressDlg.cpp:1357
    #11 0x0813c2f1 in ProgressDlg::GenerateMenus (this=0xbfffdb98, menuVobs=..., menuWSTypes=..., menuSubSteps=85, dvd=0x844d620)
        at ProgressDlg.cpp:630
    #12 0x0813ca79 in ProgressDlg::Run (this=0xbfffdb98, burnDlg=0xbfffd948, dvd=0x844d620) at ProgressDlg.cpp:568
    #13 0x0813d357 in ProgressDlg::Start (this=0xbfffdb98, burnDlg=0xbfffd948, dvd=0x844d620) at ProgressDlg.cpp:389
    #14 0x081465fe in MainWin::Burn (this=0x8326378, autoStart=false) at MainWin.cpp:897
    #15 0xb79916c9 in wxAppConsole::HandleEvent(wxEvtHandler*, void (wxEvtHandler::*)(wxEvent&), wxEvent&) const () from /usr/lib/libwx_baseu-2.8.so.0
    #16 0xb7a26ada in wxEvtHandler::ProcessEventIfMatches(wxEventTableEntryBase const&, wxEvtHandler*, wxEvent&) () from /usr/lib/libwx_baseu-2.8.so.0
    #17 0xb7a26c6b in wxEventHashTable::HandleEvent(wxEvent&, wxEvtHandler*) () from /usr/lib/libwx_baseu-2.8.so.0
    #18 0xb7a27031 in wxEvtHandler::ProcessEvent(wxEvent&) () from /usr/lib/libwx_baseu-2.8.so.0
    #19 0xb7df2ac3 in wxWindowBase::TryParent(wxEvent&) () from /usr/lib/libwx_gtk2u_core-2.8.so.0
    #20 0xb7a26fd6 in wxEvtHandler::ProcessEvent(wxEvent&) () from /usr/lib/libwx_baseu-2.8.so.0
    #21 0xb7dea237 in wxToolBarBase::OnLeftClick(int, bool) () from /usr/lib/libwx_gtk2u_core-2.8.so.0
    #22 0xb7d64c52 in ?? () from /usr/lib/libwx_gtk2u_core-2.8.so.0
    #23 0xb6d0535c in g_cclosure_marshal_VOID__VOID () from /usr/lib/libgobject-2.0.so.0
    #24 0xb6cebf42 in g_closure_invoke () from /usr/lib/libgobject-2.0.so.0
    #25 0xb6cfb7cc in ?? () from /usr/lib/libgobject-2.0.so.0
    #26 0xb6d049c4 in g_signal_emit_valist () from /usr/lib/libgobject-2.0.so.0
    #27 0xb6d04b57 in g_signal_emit () from /usr/lib/libgobject-2.0.so.0
    #28 0xb71649fa in gtk_button_clicked () from /usr/lib/libgtk-x11-2.0.so.0
    #29 0xb7165dc8 in ?? () from /usr/lib/libgtk-x11-2.0.so.0
    #30 0xb6d0535c in g_cclosure_marshal_VOID__VOID () from /usr/lib/libgobject-2.0.so.0
    #31 0xb6cea7be in ?? () from /usr/lib/libgobject-2.0.so.0
    #32 0xb6cebf42 in g_closure_invoke () from /usr/lib/libgobject-2.0.so.0
    #33 0xb6cfaf0f in ?? () from /usr/lib/libgobject-2.0.so.0
    #34 0xb6d049c4 in g_signal_emit_valist () from /usr/lib/libgobject-2.0.so.0
    #35 0xb6d04b57 in g_signal_emit () from /usr/lib/libgobject-2.0.so.0
    #36 0xb716491a in gtk_button_released () from /usr/lib/libgtk-x11-2.0.so.0
    #37 0xb7164963 in ?? () from /usr/lib/libgtk-x11-2.0.so.0
    #38 0xb721fb04 in ?? () from /usr/lib/libgtk-x11-2.0.so.0
    #39 0xb6cea7be in ?? () from /usr/lib/libgobject-2.0.so.0
    #40 0xb6cebf42 in g_closure_invoke () from /usr/lib/libgobject-2.0.so.0
    #41 0xb6cfb5bf in ?? () from /usr/lib/libgobject-2.0.so.0
    #42 0xb6d047ba in g_signal_emit_valist () from /usr/lib/libgobject-2.0.so.0
    #43 0xb6d04b57 in g_signal_emit () from /usr/lib/libgobject-2.0.so.0
    #44 0xb7352596 in ?? () from /usr/lib/libgtk-x11-2.0.so.0
    #45 0xb721dc8d in gtk_propagate_event () from /usr/lib/libgtk-x11-2.0.so.0
    #46 0xb721e08f in gtk_main_do_event () from /usr/lib/libgtk-x11-2.0.so.0
    #47 0xb708f1ba in ?? () from /usr/lib/libgdk-x11-2.0.so.0
    #48 0xb6c29b49 in g_main_context_dispatch () from /usr/lib/libglib-2.0.so.0
    ---Type <return> to continue, or q <return> to quit---
    #49 0xb6c2a350 in ?? () from /usr/lib/libglib-2.0.so.0
    #50 0xb6c2aa0f in g_main_loop_run () from /usr/lib/libglib-2.0.so.0
    #51 0xb721cd59 in gtk_main () from /usr/lib/libgtk-x11-2.0.so.0
    #52 0xb7ce032a in wxEventLoop::Run() () from /usr/lib/libwx_gtk2u_core-2.8.so.0
    #53 0xb7d70dad in wxAppBase::MainLoop() () from /usr/lib/libwx_gtk2u_core-2.8.so.0
    #54 0xb7d7069f in wxAppBase::OnRun() () from /usr/lib/libwx_gtk2u_core-2.8.so.0
    #55 0xb79c8cf2 in wxEntry(int&, wchar_t**) () from /usr/lib/libwx_baseu-2.8.so.0
    #56 0xb79c8da6 in wxEntry(int&, char**) () from /usr/lib/libwx_baseu-2.8.so.0
    #57 0x08150d9b in main (argc=1, argv=0xbfffef94) at dvdstyler.cpp:49
    
     
  • Alex Thuering

    Alex Thuering - 2011-04-12

    The problem occurs by executing spumux.
    Try to run it from shell:

    spumux -s /tmp/dvd-tmp/menu1-0.mpg_spumux.xml </tmp/dvd-tmp/menu1-0.mpg_bg.mpg >/tmp/dvd-tmp/menu1-0.mpg
    
     
  • Wolfgang Schmidt

    here is the output of spumux:

    DVDAuthor::spumux, version 0.6.18.
    Build options: gnugetopt imagemagick iconv freetype fribidi
    Send bugs to <dvdauthor-users@lists.sourceforge.net>
    ERR: 22 converting substream id "/tmp/dvd-tmp/menu1-0.mpg_spumux.xml" -- Invalid argument
    

    and here the content of /tmp/dvd-tmp/menu1-0.mpg_spumux.xml:

    <?xml version="1.0" encoding="utf-8"?>
    <subpictures format="PAL">
      <stream>
        <spu transparent="080808" highlight="/tmp/dvd-tmp/menu1-0.mpg_highlight.png" force="yes" start="00:00:00.00" select="/tmp/dvd-tmp/menu1-0.mpg_select.png" image="/tmp/dvd-tmp/menu1-0.mpg_buttons.png">
          <button y1="455" y0="283" x0="253" name="button01" x1="413"/>
          <button y1="445" y0="273" x0="248" name="button02" x1="408"/>
        </spu>
      </stream>
    </subpictures>
    
     
  • Alex Thuering

    Alex Thuering - 2011-04-12

    Sorry, the correct commad is

    spumux -s 0 /tmp/dvd-tmp/menu1-0.mpg_spumux.xml </tmp/dvd-tmp/menu1-0.mpg_bg.mpg >/tmp/dvd-tmp/menu1-0.mpg
    
     
  • Wolfgang Schmidt

    ok, here is the new output:

    DVDAuthor::spumux, version 0.6.18.
    Build options: gnugetopt imagemagick iconv freetype fribidi
    Send bugs to <dvdauthor-users@lists.sourceforge.net>
    content of /tmp/dvd-tmp/menu1-0.mpg is empty.
    ERR:  Cannot match attribute 'format' in tag 'subpictures'.  Valid attributes are:
    
     
  • Wolfgang Schmidt

    sorry, something went out of order.

    ok, here is the new output:

    DVDAuthor::spumux, version 0.6.18.
    Build options: gnugetopt imagemagick iconv freetype fribidi
    Send bugs to <dvdauthor-users@lists.sourceforge.net>
    ERR:  Cannot match attribute 'format' in tag 'subpictures'.  Valid attributes are:
    

    content of /tmp/dvd-tmp/menu1-0.mpg is empty.

     
  • Alex Thuering

    Alex Thuering - 2011-04-12

    You need to install dvdauthor 0.7.0

     
1 2 > >> (Page 1 of 2)

Log in to post a comment.

Get latest updates about Open Source Projects, Conferences and News.

Sign up for the SourceForge newsletter:





No, thanks