Support CUE sheet generation in encode to single file mode

Belgabor
2013-04-30
2013-07-14
  • Belgabor

    Belgabor - 2013-04-30

    Currently fre:ac does not generate a cue sheet if you select 'encode to single file' (at least not if you select individual files as source). Please add support for this.

    I'm archiving my cds losslessly in wavpack format with one file per disc with included cue sheet format. Since fre:ac has a convert to single file mode it would be ideal to convert older rips in one file per song format to that.

    Even better would be to be able to finally add the cuesheet as a tag. At least foobar2000 supports these cuesheets and shows the individual songs. (the tag is named 'cuesheet')
    If you choose to support this you also need to leave the title tag of the file itself empty, otherwise foobar2000 does not show the individual song titles.

    Here is an example cuesheet from my collection:

    REM DISCNUMBER 1
    REM TOTALDISCS 1
    REM GENRE Soundtrack
    REM DATE 2012
    PERFORMER "Joram Letwory"
    TITLE "Tears of Steel OST"
    FILE "Joram Letwory - [2012] Tears of Steel OST.wv" WAVE
      TRACK 01 AUDIO
        TITLE "40 Years Later"
        PERFORMER "Joram Letwory"
        INDEX 01 00:00:00
      TRACK 02 AUDIO
        TITLE "The Dome"
        PERFORMER "Joram Letwory"
        INDEX 01 00:31:00
      TRACK 03 AUDIO
        TITLE "The Battle"
        PERFORMER "Joram Letwory"
        INDEX 01 05:42:00
      TRACK 04 AUDIO
        TITLE "End Credits"
        PERFORMER "Joram Letwory"
        INDEX 01 07:45:00
    
     
  • Robert Kausch

    Robert Kausch - 2013-05-01

    Hi, please check your settings, especially the playlist/cuesheet output directory and pattern. fre:ac creates cuesheets even in single file mode, so I think they might just land somewhere where you don't expect them. If you don't already do so, you might also like to try the fre:ac snapshot releases. They generally provide much better cuesheet support than the 1.0.x series.

    I'll have a look at the cuesheet tags used by foobar. fre:ac will definitely support FLAC with embedded cuesheets in the future. I cannot promise it for other formats though.

     
  • Belgabor

    Belgabor - 2013-05-02

    Ah ok, found it, thanks. I was already using the latest snapshot, I just didn't look beyond the folder I chose for the audio file =)
    Maybe there should be an option to always put the cuesheet along the output file in this case. Optimally with the audio file path in it adjusted accordingly as it needs to be only the filename and not include the path (basically a relative path).

     
  • KampfHamster

    KampfHamster - 2013-06-04

    Hallo Robert, ich schreibe hier mal auf deutsch und hoffe du verstehst es. Ist in Freeac die Möglichkeit vorhanden eine CD in eine FLAC Datei mit eingebetteten Tags zu rippen? foobar2000 bzw Musicbee unterstützen diese Funktion, ich konnte sie bei deiner Software aber nicht finden. Außerdem wäre es toll, wenn die Möglichkeit bestehen würde von dieser einen FLAC Datei einzelne Lieder in eine lossy Format zu kovertieren, z.b. Opus. Das funktioniert leider auch nicht.
    Wäre es in Zukunft möglich dass du den Standard Explorer von Windows nutzt, die Maximieren und Minimieren Buttons sind ziemlich klein.

     
  • Robert Kausch

    Robert Kausch - 2013-07-14

    Hallo Euathlus und erstmal sorry für die Verspätung! Ich hatte die Benachrichtigungsmail wohl übersehen.

    CDs können mit fre:ac in eine einzige große FLAC-Datei gerippt werden. Allerdings werden dabei nicht die Namen der einzelnen Tracks gespeichert - das geht mit fre:ac bisher nur bei den MP4-Formaten AAC, ALS oder Apple Lossless. Die Lösung dafür wäre, gleichzeitig mit der FLAC-Datei ein CUE-Sheet zu erstellen, welches die Indexpunkte und Titel der einzelnen Tracks enthält. Das geht mit der aktuellen Snapshot-Version von fre:ac.

    Mithilfe des CUE-Sheets können anschließend auch einzelne Tracks aus der FLAC-Datei in andere Formate konvertiert werden (einfach statt der FLAC-Datei das CUE-Sheet in fre:ac öffnen, dann erscheinen die einzelnen Tracks in der Jobliste).

     

Log in to post a comment.

Get latest updates about Open Source Projects, Conferences and News.

Sign up for the SourceForge newsletter:





No, thanks