Learn how easy it is to sync an existing GitHub or Google Code repo to a SourceForge project! See Demo

Close

#19 gvidcap 1.1.2: prefs not saved

closed-rejected
nobody
None
5
2003-12-29
2003-12-29
Dennis Daniels
No

rpm 1.1.2 (thanks for providing the rpm! )

Changes made to the preferences edit box are not being
saved on Ok (exit of preferences dialog)

denny@localhost:~/download$ :xvidcap
calling: 'animate "capture-01.mpeg" -delay 200 &'
animate: AVI chunk Tz� not yet supported (capture-01.mpeg).
animate: Unable to open file (/tmp/magicAfnf22).
Terminated
denny@localhost:~/download$ :man xvidcap
denny@localhost:~/download$ :gvidcap
Input #0, audio_device, from '/dev/dsp':
Duration: N/A, bitrate: N/A
Stream #0.0: Audio: pcm_s16le, 22050 Hz, mono, 352 kb/s
Output #0, avi, to
'file:///home/denny/download/capture-01.mpeg.gz':
Stream #0.0: Video: mpeg4, 192x144, 5.00 fps, q=2-31,
300 kb/s
Stream #0.1: Audio: mp2, 22050 Hz, mono, 32 kb/s
gvidcap: relocation error: gvidcap: undefined symbol:
__fixunsdfdi
denny@localhost:~/download$ :gvidcap
Input #0, audio_device, from '/dev/dsp':
Duration: N/A, bitrate: N/A
Stream #0.0: Audio: pcm_s16le, 22050 Hz, mono, 352 kb/s
Output #0, avi, to
'file:///home/denny/download/capture-01.mpeg.gz':
Stream #0.0: Video: mpeg1video, 192x144, 5.00 fps,
q=2-31, 300 kb/s
Stream #0.1: Audio: mp2, 22050 Hz, mono, 32 kb/s
gvidcap: relocation error: gvidcap: undefined symbol:
__fixunsdfdi
denny@localhost:~/download$ :gvidcap
Input #0, audio_device, from '/dev/dsp':
Duration: N/A, bitrate: N/A
Stream #0.0: Audio: pcm_s16le, 22050 Hz, mono, 352 kb/s
Output #0, avi, to
'file:///home/denny/download/capture-02.mpeg.gz':
Stream #0.0: Video: mpeg4, 192x144, 5.00 fps, q=2-31,
300 kb/s
Stream #0.1: Audio: mp2, 22050 Hz, mono, 32 kb/s
gvidcap: relocation error: gvidcap: undefined symbol:
__fixunsdfdi
denny@localhost:~/download$ :gvidcap -v
job.job_set_file(): Original dimensions: 192 * 144
control.InitControl(): Original dimensions: 192 * 144
Current settings:
frames per second = 5.000000
video encoding = 3
file pattern = capture-01.mpeg.gz
verbose level = 1
frames to store = 0
time to capture = 0.000000 sec
compression level = 4
quality (jpeg) = 15
input source = shm (16)
capture pointer = black
capture audio = yes
- input = /dev/dsp
- sample rate = 22050
- bit rate = 32000
- channels = 1
animate command = animate "%s" -delay %d &
make video command= ppm2mpeg "%s" %d %d %d %d %f %d &
edit frame command= display "%s" &
help command = xterm -e man xvidcap &
calling 'xterm -e man xvidcap &'
Original Selection geometry: 662x446+3+29
color_table first entry: 0x00000000

Discussion

  • Dennis Daniels
    Dennis Daniels
    2003-12-29

    • summary: gidcap 1.1.2: prefs not saved --> gvidcap 1.1.2: prefs not saved
     
  • Dennis Daniels
    Dennis Daniels
    2003-12-29

    Logged In: YES
    user_id=403318

    of course I can go in via ~/.xvidcap.scf changes made there
    stuck :)

     
  • Logged In: YES
    user_id=782084

    (closing)
    Well, they never have been saved or should.
    For xvidcap, changes are saved, when clicking the save
    button within the preferences dialog. Gvidcap has an extra
    menu item "Save Preferences"

    Karl.

     
    • status: open --> closed-rejected
     
  • Dennis Daniels
    Dennis Daniels
    2003-12-29

    Logged In: YES
    user_id=403318

    Good morning Karl,
    I'm sorry. I should have been more specific. The error
    occurs when trying to save the preferences as well.
    $ :gvidcap
    Input #0, audio_device, from '/dev/dsp':
    Duration: N/A, bitrate: N/A
    Stream #0.0: Audio: pcm_s16le, 22050 Hz, mono, 352 kb/s
    Output #0, avi, to
    'file:///home/denny/download/capture-03.mpeg':
    Stream #0.0: Video: mpeg4, 192x144, 5.00 fps, q=2-31, 300 kb/s
    Stream #0.1: Audio: mp2, 22050 Hz, mono, 32 kb/s
    gvidcap: relocation error: gvidcap: undefined symbol:
    __fixunsdfdi

    gcc
    $ :gcc -v
    Reading specs from
    /usr/lib/gcc-lib/i386-redhat-linux/3.2.2/specs
    Configured with: ../configure --prefix=/usr
    --mandir=/usr/share/man --infodir=/usr/share/info
    --enable-shared --enable-threads=posix --disable-checking
    --with-system-zlib --enable-__cxa_atexit
    --host=i386-redhat-linux
    Thread model: posix
    gcc version 3.2.2 20030222 (Red Hat Linux 3.2.2-5)

     
  • Logged In: YES
    user_id=782084

    (update)
    btw., I found a bug where gvidcap doesn't correctly change
    the preference
    for audio on/off when making a change in the preferences
    dialog and
    clicking OK.
    This has now been fixed in CVS.

    The other thing is a duplicate of the other __fixunsdfdi
    bug, for which there
    is no good solution but a recompile on the target platform
    from source.
    At least that works.

    Karl.

     
  • Logged In: YES
    user_id=782084

    (update)
    found another bug which is probably this one, though I
    didn't realize
    it when this bug was filed: The preferences are not saved when
    numeric values are changed to zero! (not when changed to
    other values)

    This is fixed in CVS r1_1_3rc2

    Karl.