Learn how easy it is to sync an existing GitHub or Google Code repo to a SourceForge project! See Demo

Close

#208 soxi hangs with 100% cpu against amr-nb files

open
nobody
None
5
2012-05-31
2012-05-31
John O'Gara
No

As title, versions 14.3.2 and 14.4.0 are affected, reverting to version 14.3.1 resolves the issue

./soxi -V -V -t test.amr
./soxi INFO formats: detected file format type `amr-nb'

Discussion

  • Pascal Giard
    Pascal Giard
    2012-05-31

    Do you know if your SoX was built against opencore-amr or amrnb?
    (If you don't and you are using a package from a distribution, can you specify your GNU/Linux distribution please?)

     
  • John O'Gara
    John O'Gara
    2012-05-31

    It was built against opencore-amr-0.1.2-1.el5, let me know if there is any other info you require.

     
  • Jan Starý
    Jan Starý
    2013-02-02

    For me, 14.4.0 handles AMR files (such as recorded by my android) OK,
    be it sox, soxi, or play.

    Can you please provide an example file which 14.4.0 cannot handle?

     
  • bat
    bat
    2013-02-17

    Hi

    Works OK for me with SoX-14.4.1

    @ubuntu:~$ soxi test.amr

    Input File : 'test.amr' (amr-nb)
    Channels : 1
    Sample Rate : 8000
    Precision : 16-bit
    Duration : 00:00:30.08 = 240640 samples ~ 2256 CDDA sectors
    File Size : 48.1k
    Bit Rate : 12.8k
    Sample Encoding: AMR-NB