Learn how easy it is to sync an existing GitHub or Google Code repo to a SourceForge project! See Demo

Close

#2 Conversion failure Quicktime

open
nobody
None
5
2012-06-30
2012-06-30
tneuensc
No

Hi

First of all thank you guys for providing this piece of software! I have a Sony A35 camera and was trying to convert the produced AVCHD videos into a usable format using the “RE-wrap AVCHD for Quicktime ...” Preset. I’m using a Mac with OS X 10.6.8 and Media Converter 1.2 (4).
For some reason, I get the slightly confusing error below. I made the video file I’m trying to convert available via the link below.

https://dl.dropbox.com/u/55330997/00004.MTS

Appreciate any help on this.

Thanks

Thomas

/Applications/03 Film/Media Converter.app/Contents/Resources/ffmpeg -i /Users/tneuensc/Dropbox/Public/00004.MTS -f mov -vcodec copy -an -sn -threads 1 -metadata frontend=Media Encoder 1.2 /Users/tneuensc/Movies/Converted Movies/Sony/00004.movffmpeg version git-4f12e15, Copyright (c) 2000-2011 the Libav developers
built on May 15 2011 20:54:45 with gcc 4.0.1 (Apple Computer, Inc. build 5370)
configuration: --enable-libtheora --enable-libvorbis --enable-libvpx --enable-libmp3lame --enable-libx264 --enable-libfaac --enable-libopencore-amrnb --enable-libopencore-amrwb --enable-libgsm --enable-libschroedinger --enable-libspeex --enable-libxavs --target-os=darwin --enable-gpl --enable-pthreads --enable-nonfree --enable-version3 --disable-debug
libavutil 51. 1. 0 / 51. 1. 0
libavcodec 53. 2. 0 / 53. 2. 0
libavformat 53. 0. 3 / 53. 0. 3
libavdevice 53. 0. 0 / 53. 0. 0
libavfilter 2. 4. 0 / 2. 4. 0
libswscale 1. 1. 0 / 1. 1. 0

Seems stream 0 codec frame rate differs from container frame rate: 50.00 (50/1) -> 50.00 (50/1)
Input #0, mpegts, from '/Users/tneuensc/Dropbox/Public/00004.MTS':
Duration: 00:02:07.43, start: 1.000033, bitrate: 16841 kb/s
Program 1
Stream #0.0[0x1011]: Video: h264 (High), yuv420p, 1920x1080 [PAR 1:1 DAR 16:9], 50 fps, 50 tbr, 90k tbn, 50 tbc
Stream #0.1[0x1100]: Audio: ac3, 48000 Hz, stereo, s16, 256 kb/s
Stream #0.2[0x1200]: Subtitle: pgssub
Output #0, mov, to '/Users/tneuensc/Movies/Converted Movies/Sony/00004.mov':
Metadata:
frontend : Media Encoder 1.2
encoder : Lavf53.0.3
Stream #0.0: Video: libx264, yuv420p, 1920x1080 [PAR 1:1 DAR 16:9], q=2-31, 25 tbn, 25 tbc
Stream mapping:
Stream #0.0 -> #0.0
Press ctrl-c to stop encoding
[mov @ 0x1824e00] Application provided invalid, non monotonically increasing dts to muxer in stream 0: 1 >= 1
av_interleaved_write_frame(): Operation not permitted

Discussion