Learn how easy it is to sync an existing GitHub or Google Code repo to a SourceForge project! See Demo

Close

Re: [mcebuddy2x:discussion] Error in ffmpeg options 2.1 Release 5

RBoy
2012-04-02
2012-07-13
  • RBoy
    RBoy
    2012-04-02

    Can you post the complete log file please.

    On Mon, Apr 2, 2012 at 4:49 AM, noreply@in.sf.net wrote:

    Hi,

    when encoding with release 5 i get this error on several different wtv
    files:

    2012-03-31T23:13:33 MCEBuddy.Transcode.ConvertWithFfmpeg --> FFMpeg ab
    Konvertierung mit Parametern -threads 0 -async 1 -drc_scale 0,8 -y -i
    "D:MCEBuddyworking0Das Bayerische Jahrtausend_Bayerisches
    FS_2012_03_31_21_59_00.ts" -ss 3 -vf
    yadif=0:-1,hqdn3d,crop=720:560:0:10,setsar=64:45 -vcodec libxvid -b 2400000
    -f avi -g 300 -bf 2 -s 720x576 -acodec libmp3lame -ar 48000 -ab 128k -map
    0:1 -map 0:0 -ac 2 "D:MCEBuddyworking0Das Bayerische
    Jahrtausend_Bayerisches FS_2012_03_31_21_59_00.avi"
    2012-03-31T23:13:33 MCEBuddy.AppWrapper.FFmpeg --> Prozess gestartet
    D:MCEBuddyffmpegffmpeg.exe
    2012-03-31T23:13:33 MCEBuddy.AppWrapper.FFmpeg --> Prozess-Argumente
    -threads 0 -async 1 -drc_scale 0,8 -y -i "D:MCEBuddyworking0Das Bayerische
    Jahrtausend_Bayerisches FS_2012_03_31_21_59_00.ts" -ss 3 -vf
    yadif=0:-1,hqdn3d,crop=720:560:0:10,setsar=64:45 -vcodec libxvid -b 2400000
    -f avi -g 300 -bf 2 -s 720x576 -acodec libmp3lame -ar 48000 -ab 128k -map
    0:1 -map 0:0 -ac 2 "D:MCEBuddyworking0Das Bayerische
    Jahrtausend_Bayerisches FS_2012_03_31_21_59_00.avi"
    --> ffmpeg version N-37915-g6cb2085 Copyright (c) 2000-2012 the FFmpeg
    developers
    --> built on Feb 15 2012 20:47:20 with gcc 4.6.2
    --> configuration: --enable-gpl --enable-version3 --disable-w32threads
    --enable-runtime-cpudetect --enable-avisynth --enable-bzlib --enable-frei0r
    --enable-libopencore-amrnb --enable-libopencore-amrwb --enable-libfreetype
    --enable-libgsm --enable-libmp3lame --enable-libopenjpeg --enable-librtmp
    --enable-libschroedinger --enable-libspeex --enable-libtheora
    --enable-libvo-aacenc --enable-libvo-amrwbenc --enable-libvorbis
    --enable-libvpx --enable-libx264 --enable-libxavs --enable-libxvid
    --enable-zlib
    --> libavutil 51. 39.100 / 51. 39.100
    --> libavcodec 54. 3.100 / 54. 3.100
    --> libavformat 54. 1.100 / 54. 1.100
    --> libavdevice 53. 4.100 / 53. 4.100
    --> libavfilter 2. 62.100 / 2. 62.100
    --> libswscale 2. 1.100 / 2. 1.100
    --> libswresample 0. 6.100 / 0. 6.100
    --> libpostproc 52. 0.100 / 52. 0.100
    --> AC3 decoder @ 01FABB80 Eval @ 0022F4A8 Invalid chars ',8' at the end
    of expression '0,8'
    --> AC3 decoder @ 01FABB80 Unable to parse option value "0,8"
    --> AC3 decoder @ 01FABB80 Error setting option drc_scale to value 0,8.
    --> mpeg2video @ 01F969E0 mpeg_decode_postinit() failure
    --> Last message repeated 5 times
    --> mpegts @ 0031CB00 max_analyze_duration 5000000 reached at 5016000
    --> Input #0, mpegts, from 'D:MCEBuddyworking0Das Bayerische
    Jahrtausend_Bayerisches FS_2012_03_31_21_59_00.ts':
    --> Duration: 00:48:55.37, start: 3.364000, bitrate: 6591 kb/s
    --> Video duration=8417
    --> Program 1
    --> Stream #0:00x1100: Video: mpeg2video (Main) (2000 / 0x0002), yuv420p,
    720x576 SAR 64:45 DAR 16:9, 15000 kb/s, 25.84 fps, 25 tbr, 90k tbn, 50 tbc
    --> Stream #0:10x1101 http://sourceforge.net/../deu: Audio: ac3 (129000
    / 0x0081), 48000 Hz, stereo, s16, 384 kb/s
    --> Stream #0:20x1102 http://sourceforge.net/../deu: Audio: mp2 (4000 /
    0x0004), 48000 Hz, stereo, s16, 192 kb/s
    --> Stream #0:30x1103 http://sourceforge.net/../mis: Audio: mp2 (4000 /
    0x0004), 48000 Hz, stereo, s16, 192 kb/s
    --> Please use -b:a or -b:v, -b is ambiguous
    --> buffer @ 01F7EF40 w:720 h:576 pixfmt:yuv420p tb:1/1000000 sar:64/45
    sws_param:
    --> yadif @ 01FDD680 mode:0 parity:-1 auto_enable:0
    --> hqdn3d @ 01FDD860 ls:4.000000 cs:3.000000 lt:6.000000 ct:4.500000
    --> setsar @ 01FDE160 a:64/45
    --> crop @ 01FDDAA0 w:720 h:576 -> w:720 h:560
    --> AC3 decoder @ 020309A0 Eval @ 0022D818 Invalid chars ',8' at the end
    of expression '0,8'
    --> AC3 decoder @ 020309A0 Unable to parse option value "0,8"
    --> AC3 decoder @ 020309A0 Error setting option drc_scale to value 0,8.
    --> Output #0, avi, to 'D:MCEBuddyworking0Das Bayerische
    Jahrtausend_Bayerisches FS_2012_03_31_21_59_00.avi':
    --> Stream #0:0(deu): Audio: mp3, 48000 Hz, 2 channels, s16, 128 kb/s
    --> Stream #0:1: Video: mpeg4 (xvid / 0x64697678), yuv420p, 720x560 SAR
    64:45 DAR 64:35, q=2-31, 2400 kb/s, 90k tbn, 25 tbc
    --> Stream mapping:
    --> Stream #0:1 -> #0:0 (ac3 -> libmp3lame)
    --> Stream #0:0 -> #0:1 (mpeg2video -> libxvid)
    --> Error while opening decoder for input stream #0:1
    Fehler> 2012-03-31T23:13:36 MCEBuddy.Transcode.ConvertWithFfmpeg -->
    FFMpeg-Konvertierung.
    2012-03-31T23:13:36 MCEBuddy.Transcode.ConvertWithFfmpeg -->
    Konvertierung: Abarbeitungsgrad 0
    Fehler> 2012-03-31T23:13:36 MCEBuddy.Transcode.ConvertWithFfmpeg -->
    Konvertierung von Video ist fehlgeschlagen
    Fehler> 2012-03-31T23:13:36 MCEBuddy.Transcode.Convert --> FFMpeg nicht
    erfolgreich konvertieren, mit Fallback, falls konfiguriert
    Fehler> 2012-03-31T23:13:36 MCEBuddy.Transcode.Convert --> Kann nicht
    Datei konvertieren Das Bayerische Jahrtausend_Bayerisches
    FS_2012_03_31_21_59_00.wtv Profil DivX Avi Normal Resize MP3
    Fehler> 2012-03-31T23:13:36 MCEBuddy.Engine.ConversionJob -->
    -Konvertierung.


    Sent from sourceforge.net because you indicated interest in
    https://sourceforge.net/p/mcebuddy2x/discussion/bugreports/

    To unsubscribe from further messages, please visit
    https://sourceforge.net/auth/prefs/

     
  • RBoy
    RBoy
    2012-04-02

    Okay I've found the problem, the issue lies with the regional settings of windows. When using some regional settings Windows changes a . into a , so when MCEBuddy passes 0.8 windows ends up passing 0,8 to FFMPEg and that fails the conversion.

    This iwll be fixed in 2.1.6

    Meanwhile for now, plese uncheck DRC on the conversion task form and this problem will dissappear.

     

  • Anonymous
    2012-04-03

    Thx,

    i was aware of this as well, but didn't find a way to post the answer - sorry for this...

     

  • Anonymous
    2012-04-03

    btw, i also realized the pürogressbar is sometimes jumping back and forth - could it be this is also a problem with the locales ?

     

  • Anonymous
    2012-04-03

    thats normal, that's to do with the underlying encoders sometimes there are multiples passes or actions that need to be taken and for each action it goe sfrom 0 to 100% so the bar appearsto jump...

     

  • Anonymous
    2012-04-03

    Not sure, i see this "jumping" doing a divx one pass conversion. I assume the bar is calculated from the ffmpeg output giving the current time in the video doing the conversation.

     


Anonymous


Cancel   Add attachments