Learn how easy it is to sync an existing GitHub or Google Code repo to a SourceForge project! See Demo

Close

#361 Sierra .VMD format crash when audio decoding

open
nobody
None
5
2006-08-03
2006-08-03
Anonymous
No

C:\TEMP\ffmpeg.rev5864>ffmpeg.exe -sameq -y -vn -f vmd
-i 100.VMD 100.wav
FFmpeg version SVN-r5864, Copyright (c) 2000-2004
Fabrice Bellard
configuration: --enable-mp3lame --enable-libogg --
enable-vorbis --enable-faad --enable-faac --enabl
e-xvid --enable-x264 --enable-mingw32 --enable-a52 --
enable-dts --enable-pp --enable-gpl --enable-mema
lign-hack --enable-amr_nb --enable-amr_wb --enable-
pthreads
libavutil version: 49.0.0
libavcodec version: 51.11.0
libavformat version: 50.5.0
built on Jul 30 2006 22:39:45, gcc: 4.0.3
dispatching video frame with 19217 bytes and pts 0 (0.
0 sec)
Input #0, vmd, from '100.VMD':
Duration: 00:05:29.7, start: 0.000000, bitrate: 352
kb/s
Stream #0.0: Video: vmdvideo, pal8, 160x120, 10.00
fps(r)
Stream #0.1: Audio: vmdaudio, 22050 Hz, mono, 352 kb/
s
Output #0, wav, to '100.wav':
Stream #0.0: Audio: pcm_s16le, 22050 Hz, mono, 352
kb/s
Stream mapping:
Stream #0.1 -> #0.0
Got 125685 samples for size 123556 map E2940001
dispatching audio frame with 123556 bytes and pts 0
(0.0 sec)

--------------------

"100.VMD" video from DEMO version of "Shivers 2:
Harvest of Souls"
Decoding only video - works fine.

Discussion

  • First 255 Kb of 100.VMD file

     
    Attachments
  • This Sourceforge bug tracker here has been abandoned many years ago.

    Our new tracker can be found through http://www.ffmpeg.org/bugreports.html