5.1 audio ???

Help
schwenky2
2013-10-15
2013-10-27
  • schwenky2
    schwenky2
    2013-10-15

    Its not possible to create a DVD with AC3 48KHz 5.1 Audio. The DVDs only has 2.0 Sound.
    DVDStyler Version: 2.6beta (and earlier 2.5.2). System: Win 7.0 SP1 64bit.
    Tested with following Input Audios : AAC(mp4/...),5.1, 44100 Hz. and AAC(mp4/...),Stereo,44100 Hz. ... Checkbox 5.1 is enabled, Language ist german. (Video was h264 NTSC1280x720 and Output is PAL 720:576)
    I tested it also with DVDflick. There it works , also with upmix. Tested it with several constellations, it doesnt work with any....
    today i tested it also with xp and 2.5.2.. it wont work

     
  • Alex Thuering
    Alex Thuering
    2013-10-17

    I just tested last beta (2.6rc1) and it works.
    Please post your log file here.

     
  • schwenky2
    schwenky2
    2013-10-17

    This one is the logfile for upmix (original 2.0 , Checkbox 5.1 on)
    Do you Need 5.1 to 5.1 also ?? Regards

    DVDStyler v2.6 beta 2
    Windows 7 (build 7601, Service Pack 1), 64-bit edition
    FFmpeg: libavformat 55.14.102, libavcodec 55.29.100, libavutil 52.42.100
    Vorbereiten
    Temporäres Verzeichnis leeren
    Suche nach transkodierten Dateien im Cache
    =============================================================================
    | Input size | Output duration | Bitrate | Estimated output size
    Menu 1 | | | 6.0 MB/s | 0.0 MB
    Menu 2 | | | 6.0 MB/s | 0.0 MB
    Title 1
    mp4 | 95.2 MB | 4:52.994 sec | 8.0 MB/s | 293.0 MB
    Total | | 4:52.994 sec | | 293.0 MB
    =============================================================================
    Erstelle die Menüs
    Erstelle das Menü 1 von 2
    Erstelle Menü MPEG
    Multiplexen der Subpictures in das MPEG
    Menu has 1 group(s) of changeable colours.
    Ausführung des Befehls: spumux -P -s 0 "C:\Users\blechbix\AppData\Local\Temp\dvd-tmp\menu1-0.mpg_spumux.xml"
    DVDAuthor::spumux, version 0.7.1.
    Build options: gnugetopt iconv freetype fribidi fontconfig
    Send bug reports to dvdauthor-users@lists.sourceforge.net
    INFO: no default video format, must explicitly specify NTSC or PAL
    INFO: Converting filenames to cp1252
    INFO: PNG had 1 colors
    INFO: PNG had 4 colors
    INFO: PNG had 4 colors
    INFO: Pickbuttongroups, success with 1 groups, useimg=1
    INFO: 0 bytes of data written
    INFO: 6144 bytes of data written
    INFO: 12288 bytes of data written
    INFO: 18432 bytes of data written
    INFO: 24576 bytes of data written
    INFO: Found EOF in .sub file.
    INFO: Max_sub_size=106
    INFO: 32768 bytes of data written
    INFO: 1 subtitles added, 0 subtitles skipped, stream: 32, offset: 0.50
    Menu has 1 group(s) of changeable colours.
    Ausführung des Befehls: spumux -P -s 1 "C:\Users\blechbix\AppData\Local\Temp\dvd-tmp\menu1-0.mpg_spumux.xml"
    DVDAuthor::spumux, version 0.7.1.
    Build options: gnugetopt iconv freetype fribidi fontconfig
    Send bug reports to dvdauthor-users@lists.sourceforge.net
    INFO: no default video format, must explicitly specify NTSC or PAL
    INFO: Converting filenames to cp1252
    INFO: PNG had 1 colors
    INFO: PNG had 4 colors
    INFO: PNG had 4 colors
    INFO: Pickbuttongroups, success with 1 groups, useimg=1
    INFO: 0 bytes of data written
    INFO: 8192 bytes of data written
    INFO: 14336 bytes of data written
    INFO: 22528 bytes of data written
    INFO: Found EOF in .sub file.
    INFO: Max_sub_size=88
    INFO: 32768 bytes of data written
    INFO: found existing substream ID 0x20 (DVD-Video 0)
    INFO: 34816 bytes of data written
    INFO: 1 subtitles added, 0 subtitles skipped, stream: 33, offset: 0.50
    Erstelle das Menü 2 von 2
    Erstelle Menü MPEG
    Multiplexen der Subpictures in das MPEG
    Menu has 2 group(s) of changeable colours.
    Ausführung des Befehls: spumux -P -s 0 "C:\Users\blechbix\AppData\Local\Temp\dvd-tmp\menu1-1.mpg_spumux.xml"
    DVDAuthor::spumux, version 0.7.1.
    Build options: gnugetopt iconv freetype fribidi fontconfig
    Send bug reports to dvdauthor-users@lists.sourceforge.net
    INFO: no default video format, must explicitly specify NTSC or PAL
    INFO: Converting filenames to cp1252
    INFO: PNG had 1 colors
    INFO: PNG had 4 colors
    INFO: PNG had 7 colors
    INFO: Pickbuttongroups, success with 2 groups, useimg=1
    INFO: 0 bytes of data written
    INFO: 8192 bytes of data written
    INFO: 14336 bytes of data written
    INFO: 22528 bytes of data written
    INFO: 28672 bytes of data written
    INFO: Found EOF in .sub file.
    INFO: Max_sub_size=1406
    INFO: 1 subtitles added, 0 subtitles skipped, stream: 32, offset: 0.50
    Menu has 2 group(s) of changeable colours.
    Ausführung des Befehls: spumux -P -s 1 "C:\Users\blechbix\AppData\Local\Temp\dvd-tmp\menu1-1.mpg_spumux.xml"
    DVDAuthor::spumux, version 0.7.1.
    Build options: gnugetopt iconv freetype fribidi fontconfig
    Send bug reports to dvdauthor-users@lists.sourceforge.net
    INFO: no default video format, must explicitly specify NTSC or PAL
    INFO: Converting filenames to cp1252
    INFO: PNG had 1 colors
    INFO: PNG had 4 colors
    INFO: PNG had 7 colors
    INFO: Pickbuttongroups, success with 2 groups, useimg=1
    INFO: 0 bytes of data written
    INFO: 8192 bytes of data written
    INFO: 16384 bytes of data written
    INFO: 24576 bytes of data written
    INFO: 32768 bytes of data written
    INFO: Found EOF in .sub file.
    INFO: Max_sub_size=1060
    INFO: 38912 bytes of data written
    INFO: found existing substream ID 0x20 (DVD-Video 0)
    INFO: 1 subtitles added, 0 subtitles skipped, stream: 33, offset: 0.50
    Transkodieren/remultiplexen:
    Add file to cache:C:\Users\blechbix\AppData\Local\Temp\dvd-cache\entry001.vob
    Transkodieren der Videodatei:C:\Users\blechbix\Videos\thanx.mp4
    Need encode: true, use mplex: false
    Ausführung des Befehls: ffmpeg -i "C:\Users\blechbix\Videos\thanx.mp4" -f dvd -c:v:0 mpeg2video -s 720x576 -r 25 -g 15 -b:v:0 8000000 -maxrate:v:0 8000000 -minrate:v:0 8000000 -bufsize:v:0 1835008 -packetsize 2048 -muxrate 10080000 -b:a 192000 -ar 48000 -c:a:0 ac3 -af:a:0 aformat=channel_layouts\=6 -map 0:v -map 0:a "C:\Users\blechbix\AppData\Local\Temp\dvd-cache\entry001.vob"
    ffmpeg version N-55753-g88909be Copyright (c) 2000-2013 the FFmpeg developers
    built on Aug 24 2013 21:44:06 with gcc 4.7.3 (GCC)
    configuration: --disable-static --enable-shared --enable-gpl --enable-version3 --disable-w32threads --enable-avisynth --enable-bzlib --enable-fontconfig --enable-frei0r --enable-gnutls --enable-iconv --enable-libass --enable-libbluray --enable-libcaca --enable-libfreetype --enable-libgsm --enable-libilbc --enable-libmodplug --enable-libmp3lame --enable-libopencore-amrnb --enable-libopencore-amrwb --enable-libopenjpeg --enable-libopus --enable-librtmp --enable-libschroedinger --enable-libsoxr --enable-libspeex --enable-libtheora --enable-libtwolame --enable-libvo-aacenc --enable-libvo-amrwbenc --enable-libvorbis --enable-libvpx --enable-libx264 --enable-libxavs --enable-libxvid --enable-zlib
    libavutil 52. 42.100 / 52. 42.100
    libavcodec 55. 29.100 / 55. 29.100
    libavformat 55. 14.102 / 55. 14.102
    libavdevice 55. 3.100 / 55. 3.100
    libavfilter 3. 82.102 / 3. 82.102
    libswscale 2. 5.100 / 2. 5.100
    libswresample 0. 17.103 / 0. 17.103
    libpostproc 52. 3.100 / 52. 3.100
    Input #0, mov,mp4,m4a,3gp,3g2,mj2, from 'C:\Users\blechbix\Videos\thanx.mp4':
    Metadata:
    major_brand : isom
    minor_version : 512
    compatible_brands: isomiso2avc1mp41
    creation_time : 2013-03-16 21:39:24
    encoder : Lavf54.59.107
    Duration: 00:04:52.99, start: 0.000000, bitrate: 2725 kb/s
    Stream #0:0(und): Video: h264 (High) (avc1 / 0x31637661), yuv420p, 1280x720, 2560 kb/s, 29.97 fps, 29.97 tbr, 60k tbn, 59.94 tbc (default)
    Metadata:
    creation_time : 2013-03-16 21:39:24
    handler_name : VideoHandler
    Stream #0:1(und): Audio: aac (mp4a / 0x6134706D), 44100 Hz, stereo, fltp, 157 kb/s (default)
    Metadata:
    creation_time : 2013-03-16 21:39:24
    handler_name : SoundHandler
    Output #0, dvd, to 'C:\Users\blechbix\AppData\Local\Temp\dvd-cache\entry001.vob':
    Metadata:
    major_brand : isom
    minor_version : 512
    compatible_brands: isomiso2avc1mp41
    encoder : Lavf55.14.102
    Stream #0:0(und): Video: mpeg2video, yuv420p, 720x576, q=2-31, 8000 kb/s, 90k tbn, 25 tbc (default)
    Metadata:
    creation_time : 2013-03-16 21:39:24
    handler_name : VideoHandler
    Stream #0:1(und): Audio: ac3, 48000 Hz, 5.1, fltp, 192 kb/s (default)
    Metadata:
    creation_time : 2013-03-16 21:39:24
    handler_name : SoundHandler
    Stream mapping:
    Stream #0:0 -> #0:0 (h264 -> mpeg2video)
    Stream #0:1 -> #0:1 (aac -> ac3)
    Press [q] to stop, [?] for help
    frame= 47 fps=0.0 q=3.6 size= 1814kB time=00:00:01.91 bitrate=7761.3kbits/s dup=0 drop=7
    frame= 115 fps=112 q=2.0 size= 4560kB time=00:00:04.63 bitrate=8060.0kbits/s dup=0 drop=20
    frame= 183 fps=118 q=2.0 size= 7356kB time=00:00:07.35 bitrate=8193.5kbits/s dup=0 drop=34
    frame= 239 fps=116 q=2.0 size= 9592kB time=00:00:09.59 bitrate=8189.7kbits/s dup=0 drop=45
    frame= 297 fps=115 q=2.0 size= 11982kB time=00:00:11.89 bitrate=8249.4kbits/s dup=0 drop=56
    frame= 354 fps=115 q=2.0 size= 14294kB time=00:00:14.20 bitrate=8244.7kbits/s dup=0 drop=68
    frame= 412 fps=114 q=2.0 size= 16702kB time=00:00:16.47 bitrate=8305.0kbits/s dup=0 drop=79
    frame= 481 fps=117 q=2.0 size= 19424kB time=00:00:19.25 bitrate=8262.3kbits/s dup=0 drop=93
    frame= 547 fps=118 q=2.0 size= 22154kB time=00:00:21.88 bitrate=8293.6kbits/s dup=0 drop=106
    frame= 610 fps=118 q=2.0 size= 24716kB time=00:00:24.44 bitrate=8283.6kbits/s dup=0 drop=119
    frame= 669 fps=118 q=2.0 size= 27118kB time=00:00:26.77 bitrate=8295.8kbits/s dup=0 drop=130
    frame= 726 fps=118 q=2.0 size= 29418kB time=00:00:29.08 bitrate=8286.5kbits/s dup=0 drop=142
    frame= 789 fps=118 q=2.0 size= 31962kB time=00:00:31.57 bitrate=8291.4kbits/s dup=0 drop=154
    frame= 857 fps=119 q=1.6 size= 34790kB time=00:00:34.33 bitrate=8301.6kbits/s dup=0 drop=168
    frame= 926 fps=120 q=2.0 size= 37530kB time=00:00:37.05 bitrate=8298.0kbits/s dup=0 drop=181
    frame= 994 fps=121 q=2.0 size= 40342kB time=00:00:39.77 bitrate=8309.7kbits/s dup=0 drop=195
    frame= 1044 fps=120 q=2.0 size= 42426kB time=00:00:41.78 bitrate=8317.3kbits/s dup=0 drop=205
    frame= 1086 fps=118 q=3.0 size= 44150kB time=00:00:43.48 bitrate=8317.7kbits/s dup=0 drop=213
    frame= 1114 fps=112 q=3.0 size= 45282kB time=00:00:44.57 bitrate=8322.7kbits/s dup=0 drop=219
    frame= 1166 fps=111 q=2.0 size= 47340kB time=00:00:46.65 bitrate=8313.0kbits/s dup=0 drop=229
    frame= 1228 fps=112 q=2.0 size= 49824kB time=00:00:49.14 bitrate=8304.9kbits/s dup=0 drop=242
    frame= 1296 fps=113 q=2.0 size= 52628kB time=00:00:51.86 bitrate=8312.2kbits/s dup=0 drop=255
    frame= 1335 fps=111 q=2.0 size= 54186kB time=00:00:53.43 bitrate=8307.2kbits/s dup=0 drop=263
    frame= 1388 fps=111 q=2.0 size= 56374kB time=00:00:55.54 bitrate=8314.0kbits/s dup=0 drop=273
    frame= 1450 fps=111 q=2.0 size= 58876kB time=00:00:58.04 bitrate=8309.6kbits/s dup=0 drop=286
    frame= 1500 fps=111 q=2.0 size= 60926kB time=00:01:00.05 bitrate=8310.3kbits/s dup=0 drop=296
    frame= 1549 fps=110 q=2.0 size= 62882kB time=00:01:01.97 bitrate=8311.4kbits/s dup=0 drop=305
    frame= 1607 fps=110 q=3.6 size= 65286kB time=00:01:04.31 bitrate=8315.7kbits/s dup=0 drop=317
    frame= 1672 fps=110 q=2.0 size= 67926kB time=00:01:06.90 bitrate=8316.8kbits/s dup=0 drop=330
    frame= 1736 fps=111 q=2.0 size= 70500kB time=00:01:09.46 bitrate=8313.9kbits/s dup=0 drop=343
    frame= 1782 fps=110 q=2.0 size= 72360kB time=00:01:11.32 bitrate=8311.1kbits/s dup=0 drop=352
    frame= 1830 fps=109 q=2.0 size= 74336kB time=00:01:13.17 bitrate=8321.6kbits/s dup=0 drop=361
    frame= 1877 fps=109 q=3.6 size= 76224kB time=00:01:15.09 bitrate=8314.8kbits/s dup=0 drop=371
    frame= 1932 fps=109 q=2.0 size= 78504kB time=00:01:17.33 bitrate=8315.4kbits/s dup=0 drop=382
    frame= 1978 fps=108 q=2.0 size= 80378kB time=00:01:19.16 bitrate=8317.8kbits/s dup=0 drop=391
    frame= 2019 fps=107 q=2.0 size= 82028kB time=00:01:20.79 bitrate=8317.1kbits/s dup=0 drop=399
    frame= 2072 fps=107 q=3.6 size= 84164kB time=00:01:22.90 bitrate=8316.2kbits/s dup=0 drop=409
    frame= 2119 fps=107 q=2.0 size= 86156kB time=00:01:24.79 bitrate=8323.5kbits/s dup=0 drop=419
    frame= 2157 fps=106 q=2.0 size= 87658kB time=00:01:26.29 bitrate=8321.0kbits/s dup=0 drop=426
    frame= 2204 fps=106 q=2.0 size= 89580kB time=00:01:28.21 bitrate=8318.4kbits/s dup=0 drop=436
    frame= 2261 fps=106 q=2.0 size= 91850kB time=00:01:30.45 bitrate=8318.0kbits/s dup=0 drop=447
    frame= 2328 fps=106 q=2.0 size= 94582kB time=00:01:33.14 bitrate=8318.2kbits/s dup=0 drop=460
    frame= 2378 fps=106 q=2.0 size= 96636kB time=00:01:35.13 bitrate=8321.6kbits/s dup=0 drop=470
    frame= 2441 fps=107 q=2.0 size= 99174kB time=00:01:37.69 bitrate=8316.4kbits/s dup=0 drop=483
    frame= 2508 fps=107 q=2.0 size= 101906kB time=00:01:40.34 bitrate=8319.3kbits/s dup=0 drop=496
    frame= 2561 fps=107 q=2.0 size= 104056kB time=00:01:42.45 bitrate=8319.7kbits/s dup=0 drop=506
    frame= 2623 fps=107 q=2.0 size= 106622kB time=00:01:44.95 bitrate=8322.1kbits/s dup=0 drop=519
    frame= 2688 fps=108 q=2.0 size= 109266kB time=00:01:47.54 bitrate=8323.0kbits/s dup=0 drop=532
    frame= 2759 fps=108 q=2.0 size= 112154kB time=00:01:50.36 bitrate=8325.0kbits/s dup=0 drop=546
    frame= 2823 fps=108 q=2.0 size= 114732kB time=00:01:52.92 bitrate=8323.3kbits/s dup=0 drop=558
    frame= 2867 fps=108 q=3.6 size= 116570kB time=00:01:54.71 bitrate=8324.5kbits/s dup=0 drop=567
    frame= 2899 fps=107 q=2.0 size= 117916kB time=00:01:55.99 bitrate=8327.7kbits/s dup=0 drop=574
    frame= 2948 fps=106 q=2.0 size= 119918kB time=00:01:57.94 bitrate=8328.9kbits/s dup=0 drop=584
    frame= 2996 fps=106 q=2.0 size= 121874kB time=00:01:59.86 bitrate=8329.2kbits/s dup=0 drop=593
    frame= 3029 fps=105 q=2.0 size= 123112kB time=00:02:01.17 bitrate=8322.7kbits/s dup=0 drop=599
    frame= 3102 fps=106 q=2.0 size= 126092kB time=00:02:04.12 bitrate=8322.0kbits/s dup=0 drop=614
    frame= 3172 fps=106 q=2.0 size= 128960kB time=00:02:06.90 bitrate=8324.5kbits/s dup=0 drop=628
    frame= 3213 fps=106 q=2.0 size= 130620kB time=00:02:08.53 bitrate=8324.6kbits/s dup=0 drop=636
    frame= 3277 fps=106 q=2.0 size= 133188kB time=00:02:11.09 bitrate=8322.6kbits/s dup=0 drop=649
    frame= 3339 fps=106 q=2.0 size= 135736kB time=00:02:13.59 bitrate=8323.3kbits/s dup=0 drop=661
    frame= 3376 fps=106 q=5.0 size= 137330kB time=00:02:15.03 bitrate=8331.2kbits/s dup=0 drop=668
    frame= 3393 fps=104 q=7.0 size= 138038kB time=00:02:15.73 bitrate=8330.8kbits/s dup=0 drop=672
    frame= 3411 fps=103 q=6.0 size= 138774kB time=00:02:16.47 bitrate=8330.0kbits/s dup=0 drop=675
    frame= 3427 fps=102 q=7.0 size= 139400kB time=00:02:17.08 bitrate=8330.5kbits/s dup=0 drop=679
    frame= 3447 fps=101 q=6.0 size= 140242kB time=00:02:17.91 bitrate=8330.2kbits/s dup=0 drop=683
    frame= 3473 fps=101 q=5.0 size= 141292kB time=00:02:18.93 bitrate=8330.8kbits/s dup=0 drop=688
    frame= 3473 fps= 26 q=5.0 size= 141292kB time=00:02:18.97 bitrate=8328.8kbits/s dup=0 drop=688
    frame= 3488 fps= 26 q=5.0 size= 141900kB time=00:02:19.54 bitrate=8330.2kbits/s dup=0 drop=691
    frame= 3508 fps= 26 q=4.0 size= 142714kB time=00:02:20.37 bitrate=8328.3kbits/s dup=0 drop=695
    frame= 3528 fps= 26 q=9.0 size= 143494kB time=00:02:21.14 bitrate=8328.2kbits/s dup=0 drop=699
    frame= 3541 fps= 26 q=10.0 size= 144022kB time=00:02:21.65 bitrate=8328.7kbits/s dup=0 drop=701
    frame= 3556 fps= 26 q=7.0 size= 144674kB time=00:02:22.23 bitrate=8332.5kbits/s dup=0 drop=704
    frame= 3597 fps= 26 q=2.0 size= 146240kB time=00:02:23.93 bitrate=8323.4kbits/s dup=0 drop=713
    frame= 3663 fps= 26 q=2.0 size= 148948kB time=00:02:26.55 bitrate=8325.8kbits/s dup=0 drop=726
    frame= 3730 fps= 27 q=2.0 size= 151620kB time=00:02:29.24 bitrate=8322.5kbits/s dup=0 drop=739
    frame= 3770 fps= 27 q=3.0 size= 153342kB time=00:02:30.84 bitrate=8327.7kbits/s dup=0 drop=747
    frame= 3814 fps= 27 q=3.0 size= 155112kB time=00:02:32.57 bitrate=8328.5kbits/s dup=0 drop=755
    frame= 3859 fps= 27 q=3.0 size= 156982kB time=00:02:34.36 bitrate=8331.0kbits/s dup=0 drop=764
    frame= 3904 fps= 27 q=2.0 size= 158794kB time=00:02:36.21 bitrate=8327.0kbits/s dup=0 drop=774
    frame= 3965 fps= 28 q=2.0 size= 161184kB time=00:02:38.65 bitrate=8322.8kbits/s dup=0 drop=786
    frame= 4029 fps= 28 q=2.0 size= 163830kB time=00:02:41.17 bitrate=8326.8kbits/s dup=0 drop=798
    frame= 4090 fps= 28 q=2.0 size= 166310kB time=00:02:43.64 bitrate=8325.5kbits/s dup=0 drop=811
    frame= 4150 fps= 29 q=2.0 size= 168714kB time=00:02:46.01 bitrate=8325.4kbits/s dup=0 drop=822
    frame= 4212 fps= 29 q=2.0 size= 171272kB time=00:02:48.50 bitrate=8326.4kbits/s dup=0 drop=835
    frame= 4281 fps= 29 q=2.0 size= 174074kB time=00:02:51.29 bitrate=8325.1kbits/s dup=0 drop=849
    frame= 4355 fps= 30 q=2.0 size= 177066kB time=00:02:54.23 bitrate=8325.1kbits/s dup=0 drop=863
    frame= 4422 fps= 30 q=2.0 size= 179800kB time=00:02:56.89 bitrate=8326.7kbits/s dup=0 drop=876
    frame= 4487 fps= 31 q=1.6 size= 182434kB time=00:02:59.48 bitrate=8326.7kbits/s dup=0 drop=889
    frame= 4545 fps= 31 q=2.0 size= 184870kB time=00:03:01.85 bitrate=8328.0kbits/s dup=0 drop=901
    frame= 4597 fps= 31 q=2.0 size= 186896kB time=00:03:03.86 bitrate=8327.0kbits/s dup=0 drop=911
    frame= 4652 fps= 31 q=9.5 size= 189208kB time=00:03:06.10 bitrate=8328.5kbits/s dup=0 drop=922
    frame= 4667 fps= 31 q=17.5 size= 189884kB time=00:03:06.71 bitrate=8331.1kbits/s dup=0 drop=925
    frame= 4679 fps= 31 q=7.0 size= 190358kB time=00:03:07.16 bitrate=8331.9kbits/s dup=0 drop=927
    frame= 4692 fps= 31 q=7.0 size= 190888kB time=00:03:07.70 bitrate=8330.8kbits/s dup=0 drop=930
    frame= 4709 fps= 31 q=2.0 size= 191494kB time=00:03:08.41 bitrate=8326.1kbits/s dup=0 drop=934
    frame= 4769 fps= 32 q=2.0 size= 193892kB time=00:03:10.77 bitrate=8325.7kbits/s dup=0 drop=945
    frame= 4823 fps= 32 q=2.0 size= 196106kB time=00:03:12.92 bitrate=8327.2kbits/s dup=0 drop=956
    frame= 4860 fps= 32 q=2.0 size= 197670kB time=00:03:14.45 bitrate=8327.3kbits/s dup=0 drop=964
    frame= 4909 fps= 32 q=2.0 size= 199638kB time=00:03:16.37 bitrate=8328.0kbits/s dup=0 drop=973
    frame= 4966 fps= 32 q=2.0 size= 201932kB time=00:03:18.65 bitrate=8327.3kbits/s dup=0 drop=984
    frame= 5012 fps= 33 q=2.8 size= 203846kB time=00:03:20.50 bitrate=8328.4kbits/s dup=0 drop=994
    frame= 5050 fps= 33 q=2.0 size= 205368kB time=00:03:22.01 bitrate=8328.1kbits/s dup=0 drop=1001
    frame= 5102 fps= 33 q=3.6 size= 207466kB time=00:03:24.12 bitrate=8326.2kbits/s dup=0 drop=1012
    frame= 5155 fps= 33 q=2.0 size= 209632kB time=00:03:26.20 bitrate=8328.2kbits/s dup=0 drop=1022
    frame= 5183 fps= 33 q=5.0 size= 210868kB time=00:03:27.35 bitrate=8330.8kbits/s dup=0 drop=1028
    frame= 5197 fps= 33 q=6.0 size= 211394kB time=00:03:27.89 bitrate=8329.7kbits/s dup=0 drop=1030
    frame= 5216 fps= 33 q=6.0 size= 212176kB time=00:03:28.66 bitrate=8329.8kbits/s dup=0 drop=1034
    frame= 5237 fps= 33 q=14.5 size= 213030kB time=00:03:29.49 bitrate=8330.1kbits/s dup=0 drop=1038
    frame= 5257 fps= 33 q=6.0 size= 213872kB time=00:03:30.26 bitrate=8332.5kbits/s dup=0 drop=1042
    frame= 5274 fps= 33 q=6.0 size= 214564kB time=00:03:31.00 bitrate=8330.3kbits/s dup=0 drop=1046
    frame= 5296 fps= 33 q=5.0 size= 215432kB time=00:03:31.86 bitrate=8329.9kbits/s dup=0 drop=1050
    frame= 5317 fps= 33 q=5.0 size= 216280kB time=00:03:32.69 bitrate=8329.9kbits/s dup=0 drop=1054
    frame= 5363 fps= 34 q=2.0 size= 218104kB time=00:03:34.52 bitrate=8328.8kbits/s dup=0 drop=1063
    frame= 5409 fps= 34 q=2.0 size= 219936kB time=00:03:36.37 bitrate=8326.7kbits/s dup=0 drop=1073
    frame= 5472 fps= 34 q=2.0 size= 222498kB time=00:03:38.90 bitrate=8326.4kbits/s dup=0 drop=1085
    frame= 5529 fps= 34 q=2.0 size= 224820kB time=00:03:41.17 bitrate=8326.9kbits/s dup=0 drop=1096
    frame= 5579 fps= 34 q=2.0 size= 226860kB time=00:03:43.16 bitrate=8327.7kbits/s dup=0 drop=1106
    frame= 5628 fps= 35 q=2.0 size= 228886kB time=00:03:45.14 bitrate=8328.1kbits/s dup=0 drop=1116
    frame= 5695 fps= 35 q=2.0 size= 231610kB time=00:03:47.83 bitrate=8327.7kbits/s dup=0 drop=1130
    frame= 5757 fps= 35 q=2.0 size= 234132kB time=00:03:50.33 bitrate=8327.2kbits/s dup=0 drop=1142
    frame= 5806 fps= 35 q=2.0 size= 236076kB time=00:03:52.28 bitrate=8325.8kbits/s dup=0 drop=1152
    frame= 5870 fps= 36 q=2.0 size= 238714kB time=00:03:54.81 bitrate=8328.2kbits/s dup=0 drop=1164
    frame= 5939 fps= 36 q=2.0 size= 241536kB time=00:03:57.59 bitrate=8327.9kbits/s dup=0 drop=1178
    frame= 5987 fps= 36 q=5.6 size= 243494kB time=00:03:59.48 bitrate=8329.2kbits/s dup=0 drop=1187
    frame= 6043 fps= 36 q=2.0 size= 245750kB time=00:04:01.75 bitrate=8327.4kbits/s dup=0 drop=1199
    frame= 6076 fps= 36 q=2.0 size= 247108kB time=00:04:03.06 bitrate=8328.2kbits/s dup=0 drop=1205
    frame= 6144 fps= 37 q=2.0 size= 249880kB time=00:04:05.78 bitrate=8328.4kbits/s dup=0 drop=1219
    frame= 6217 fps= 37 q=2.0 size= 252806kB time=00:04:08.69 bitrate=8327.3kbits/s dup=0 drop=1233
    frame= 6297 fps= 37 q=2.0 size= 256060kB time=00:04:11.89 bitrate=8327.3kbits/s dup=0 drop=1249
    frame= 6381 fps= 38 q=2.0 size= 259478kB time=00:04:15.29 bitrate=8326.4kbits/s dup=0 drop=1266
    frame= 6445 fps= 38 q=2.0 size= 262124kB time=00:04:17.85 bitrate=8327.8kbits/s dup=0 drop=1279
    frame= 6506 fps= 38 q=2.0 size= 264596kB time=00:04:20.28 bitrate=8327.8kbits/s dup=0 drop=1291
    frame= 6565 fps= 39 q=2.0 size= 267006kB time=00:04:22.61 bitrate=8328.9kbits/s dup=0 drop=1302
    frame= 6625 fps= 39 q=2.0 size= 269448kB time=00:04:25.01 bitrate=8328.9kbits/s dup=0 drop=1314
    frame= 6685 fps= 39 q=2.0 size= 271860kB time=00:04:27.41 bitrate=8328.1kbits/s dup=0 drop=1326
    frame= 6741 fps= 39 q=2.0 size= 274160kB time=00:04:29.65 bitrate=8328.7kbits/s dup=0 drop=1337
    frame= 6796 fps= 39 q=2.0 size= 276366kB time=00:04:31.86 bitrate=8327.6kbits/s dup=0 drop=1348
    frame= 6857 fps= 40 q=3.6 size= 278878kB time=00:04:34.29 bitrate=8328.8kbits/s dup=0 drop=1360
    frame= 6917 fps= 40 q=3.6 size= 281350kB time=00:04:36.69 bitrate=8329.7kbits/s dup=0 drop=1372
    frame= 6977 fps= 40 q=3.6 size= 283726kB time=00:04:39.09 bitrate=8327.8kbits/s dup=0 drop=1384
    frame= 7011 fps= 40 q=2.0 size= 285182kB time=00:04:40.47 bitrate=8329.5kbits/s dup=0 drop=1391
    frame= 7035 fps= 40 q=7.0 size= 286218kB time=00:04:41.43 bitrate=8331.2kbits/s dup=0 drop=1396
    frame= 7051 fps= 40 q=11.5 size= 286888kB time=00:04:42.04 bitrate=8332.7kbits/s dup=0 drop=1399
    frame= 7065 fps= 40 q=12.5 size= 287412kB time=00:04:42.65 bitrate=8330.0kbits/s dup=0 drop=1402
    frame= 7081 fps= 40 q=8.0 size= 288096kB time=00:04:43.25 bitrate=8331.9kbits/s dup=0 drop=1405
    frame= 7097 fps= 40 q=7.0 size= 288712kB time=00:04:43.89 bitrate=8330.9kbits/s dup=0 drop=1408
    frame= 7114 fps= 40 q=8.0 size= 289398kB time=00:04:44.60 bitrate=8330.0kbits/s dup=0 drop=1412
    frame= 7135 fps= 40 q=3.6 size= 290302kB time=00:04:45.43 bitrate=8331.7kbits/s dup=0 drop=1416
    frame= 7153 fps= 40 q=8.8 size= 291024kB time=00:04:46.13 bitrate=8331.9kbits/s dup=0 drop=1419
    frame= 7166 fps= 40 q=15.5 size= 291524kB time=00:04:46.68 bitrate=8330.3kbits/s dup=0 drop=1422
    frame= 7178 fps= 40 q=11.5 size= 292044kB time=00:04:47.13 bitrate=8332.2kbits/s dup=0 drop=1424
    frame= 7191 fps= 40 q=14.5 size= 292560kB time=00:04:47.67 bitrate=8331.1kbits/s dup=0 drop=1427
    frame= 7203 fps= 40 q=15.5 size= 293050kB time=00:04:48.12 bitrate=8332.1kbits/s dup=0 drop=1429
    frame= 7217 fps= 40 q=9.0 size= 293646kB time=00:04:48.69 bitrate=8332.4kbits/s dup=0 drop=1432
    frame= 7234 fps= 40 q=9.4 size= 294342kB time=00:04:49.33 bitrate=8333.7kbits/s dup=0 drop=1435
    frame= 7254 fps= 40 q=6.0 size= 295098kB time=00:04:50.17 bitrate=8331.1kbits/s dup=0 drop=1439
    frame= 7285 fps= 40 q=2.0 size= 296384kB time=00:04:51.45 bitrate=8330.7kbits/s dup=0 drop=1446
    frame= 7327 fps= 40 q=1.6 Lsize= 298078kB time=00:04:53.04 bitrate=8332.8kbits/s dup=0 drop=1454
    video:286155kB audio:6867kB subtitle:0 global headers:0kB muxing overhead 1.725489%
    =========================
    | Result size
    Menu 1 | 0.0 MB
    Menu 2 | 0.0 MB
    Title 1 | 291.1 MB
    Total | 291.2 MB
    =========================
    Erstelle DVD
    Ausführung des Befehls: dvdauthor -o "C:\Users\blechbix\AppData\Local\Temp\dvd-out" -x "C:\Users\blechbix\AppData\Local\Temp\dvd-tmp\dvdauthor.xml"
    DVDAuthor::dvdauthor, version 0.7.1.
    Build options: gnugetopt iconv freetype fribidi fontconfig
    Send bug reports to dvdauthor-users@lists.sourceforge.net
    INFO: no default video format, must explicitly specify NTSC or PAL
    INFO: Converting filenames to cp1252
    INFO: dvdauthor creating VTS
    STAT: Picking VTS 01
    STAT: Processing C:\Users\blechbix\AppData\Local\Temp\dvd-tmp\menu1-0.mpg...
    INFO: Video pts = 0.500 .. 0.933
    INFO: Audio[0] pts = 0.500 .. 0.916
    INFO: Audio[32] pts = 0.500 .. 0.500
    INFO: Audio[33] pts = 0.500 .. 0.500
    STAT: Processing C:\Users\blechbix\AppData\Local\Temp\dvd-tmp\menu1-1.mpg...
    INFO: Video pts = 0.500 .. 0.933
    INFO: Audio[0] pts = 0.500 .. 0.916
    INFO: Audio[32] pts = 0.500 .. 0.500
    INFO: Audio[33] pts = 0.500 .. 0.500
    STAT: VOBU 2 at 0MB, 2 PGCs
    CHAPTERS: VTS[1/1] 0.000
    CHAPTERS: VTS[2/1] 0.000
    INFO: Generating VTSM with the following video attributes:
    INFO: MPEG version: mpeg2
    INFO: TV standard: ntsc
    INFO: Aspect ratio: 16:9
    INFO: Resolution: 720x480
    INFO: Audio ch 0 format: ac3/2ch, 48khz drc, 'de'
    STAT: Processing C:\Users\blechbix\AppData\Local\Temp\dvd-cache\entry001.vob...
    WARN: unknown mpeg2 aspect ratio 1
    WARN: unknown mpeg2 aspect ratio 1
    WARN: unknown mpeg2 aspect ratio 1
    WARN: unknown mpeg2 aspect ratio 1
    WARN: unknown mpeg2 aspect ratio 1
    WARN: unknown mpeg2 aspect ratio 1
    WARN: unknown mpeg2 aspect ratio 1
    WARN: unknown mpeg2 aspect ratio 1
    WARN: unknown mpeg2 aspect ratio 1
    WARN: unknown mpeg2 aspect ratio 1
    WARN: unknown mpeg2 aspect ratio 1
    STAT: VOBU 16 at 8MB, 1 PGCs
    WARN: unknown mpeg2 aspect ratio 1
    WARN: unknown mpeg2 aspect ratio 1
    STAT: VOBU 32 at 18MB, 1 PGCs
    WARN: unknown mpeg2 aspect ratio 1
    STAT: VOBU 48 at 27MB, 1 PGCs
    WARN: unknown mpeg2 aspect ratio 1
    WARN: unknown mpeg2 aspect ratio 1
    STAT: VOBU 64 at 37MB, 1 PGCs
    WARN: unknown mpeg2 aspect ratio 1
    STAT: VOBU 80 at 47MB, 1 PGCs
    WARN: unknown mpeg2 aspect ratio 1
    WARN: unknown mpeg2 aspect ratio 1
    STAT: VOBU 96 at 56MB, 1 PGCs
    WARN: unknown mpeg2 aspect ratio 1
    WARN: unknown mpeg2 aspect ratio 1
    STAT: VOBU 112 at 66MB, 1 PGCs
    STAT: VOBU 128 at 75MB, 1 PGCs
    STAT: VOBU 144 at 85MB, 1 PGCs
    STAT: VOBU 160 at 94MB, 1 PGCs
    STAT: VOBU 176 at 104MB, 1 PGCs
    STAT: VOBU 192 at 113MB, 1 PGCs
    WARN: unknown mpeg2 aspect ratio 1
    STAT: VOBU 208 at 123MB, 1 PGCs
    STAT: VOBU 224 at 132MB, 1 PGCs
    STAT: VOBU 240 at 142MB, 1 PGCs
    STAT: VOBU 256 at 152MB, 1 PGCs
    STAT: VOBU 272 at 161MB, 1 PGCs
    STAT: VOBU 288 at 170MB, 1 PGCs
    WARN: unknown mpeg2 aspect ratio 1
    STAT: VOBU 304 at 180MB, 1 PGCs
    STAT: VOBU 320 at 190MB, 1 PGCs
    STAT: VOBU 336 at 199MB, 1 PGCs
    STAT: VOBU 352 at 209MB, 1 PGCs
    STAT: VOBU 368 at 218MB, 1 PGCs
    STAT: VOBU 384 at 228MB, 1 PGCs
    STAT: VOBU 400 at 237MB, 1 PGCs
    WARN: unknown mpeg2 aspect ratio 1
    STAT: VOBU 416 at 247MB, 1 PGCs
    STAT: VOBU 432 at 256MB, 1 PGCs
    STAT: VOBU 448 at 266MB, 1 PGCs
    STAT: VOBU 464 at 275MB, 1 PGCs
    WARN: unknown mpeg2 aspect ratio 1
    STAT: VOBU 480 at 283MB, 1 PGCs
    STAT: VOBU 496 at 290MB, 1 PGCs
    INFO: Video pts = 0.540 .. 293.620
    INFO: Audio[0] pts = 0.534 .. 293.526
    STAT: VOBU 498 at 291MB, 1 PGCs
    CHAPTERS: VTS[1/1] 0.000
    INFO: Generating VTS with the following video attributes:
    INFO: MPEG version: mpeg2
    INFO: TV standard: pal
    INFO: Aspect ratio: 16:9
    INFO: Resolution: 720x576
    INFO: Audio ch 0 format: ac3/6ch, 48khz drc, 'de'
    STAT: fixed 2 VOBUs
    STAT: fixing VOBU at 8MB (17/498, 3%)
    STAT: fixing VOBU at 18MB (33/498, 6%)
    STAT: fixing VOBU at 37MB (65/498, 12%)
    STAT: fixing VOBU at 47MB (81/498, 16%)
    STAT: fixing VOBU at 66MB (113/498, 22%)
    STAT: fixing VOBU at 75MB (129/498, 25%)
    STAT: fixing VOBU at 94MB (161/498, 32%)
    STAT: fixing VOBU at 104MB (177/498, 35%)
    STAT: fixing VOBU at 123MB (209/498, 41%)
    STAT: fixing VOBU at 142MB (241/498, 48%)
    STAT: fixing VOBU at 152MB (257/498, 51%)
    STAT: fixing VOBU at 170MB (289/498, 57%)
    STAT: fixing VOBU at 180MB (305/498, 61%)
    STAT: fixing VOBU at 199MB (337/498, 67%)
    STAT: fixing VOBU at 209MB (353/498, 70%)
    STAT: fixing VOBU at 228MB (385/498, 77%)
    STAT: fixing VOBU at 237MB (401/498, 80%)
    STAT: fixing VOBU at 256MB (433/498, 86%)
    STAT: fixing VOBU at 275MB (465/498, 93%)
    STAT: fixing VOBU at 283MB (481/498, 96%)
    STAT: fixed 498 VOBUs
    INFO: dvdauthor creating table of contents
    INFO: Scanning C:\Users\blechbix\AppData\Local\Temp\dvd-out/VIDEO_TS/VTS_01_0.IFO
    INFO: Creating menu for TOC
    STAT: Processing C:\Program Files (x86)\DVDStyler\data\empty_ntsc_ac3.mpg...
    WARN: attempt to update aspect ratio from 16:9 to 4:3; skipping
    INFO: Video pts = 0.178 .. 6.417
    INFO: Audio[0] pts = 0.178 .. 6.194
    STAT: VOBU 11 at 0MB, 1 PGCs
    CHAPTERS: VTS[1/1] 0.000
    INFO: Generating VMGM with the following video attributes:
    INFO: MPEG version: mpeg2
    INFO: TV standard: ntsc
    INFO: Aspect ratio: 16:9
    INFO: Resolution: 720x480
    INFO: Audio ch 0 format: ac3/2ch, 48khz drc, 'de'
    STAT: fixed 11 VOBUs
    Brennen
    Disc size: 4482 MB
    ISO Size: 292 MB
    Ausführung des Befehls: growisofs -V "Test 5.1" -dvd-compat -Z F: -dvd-video "C:\Users\blechbix\AppData\Local\Temp\dvd-out" -speed=8
    Executing 'C:\Program Files (x86)\DVDStyler\bin\mkisofs.exe -V Test 5.1 -dvd-video C:\Users\blechbix\AppData\Local\Temp\dvd-out | builtin_dd of=\.\F: obs=32k seek=0'
    3.34% done, estimate finish Thu Oct 17 22:06:29 2013
    6.69% done, estimate finish Thu Oct 17 22:06:29 2013
    10.02% done, estimate finish Thu Oct 17 22:06:29 2013
    16.71% done, estimate finish Thu Oct 17 22:09:16 2013
    20.05% done, estimate finish Thu Oct 17 22:09:03 2013
    26.73% done, estimate finish Thu Oct 17 22:08:47 2013
    30.07% done, estimate finish Thu Oct 17 22:08:42 2013
    36.75% done, estimate finish Thu Oct 17 22:08:34 2013
    40.10% done, estimate finish Thu Oct 17 22:08:31 2013
    46.78% done, estimate finish Thu Oct 17 22:08:26 2013
    50.12% done, estimate finish Thu Oct 17 22:08:24 2013
    56.80% done, estimate finish Thu Oct 17 22:08:23 2013
    60.14% done, estimate finish Thu Oct 17 22:08:22 2013
    66.83% done, estimate finish Thu Oct 17 22:08:19 2013
    70.16% done, estimate finish Thu Oct 17 22:08:18 2013
    76.84% done, estimate finish Thu Oct 17 22:08:18 2013
    80.19% done, estimate finish Thu Oct 17 22:08:17 2013
    86.87% done, estimate finish Thu Oct 17 22:08:16 2013
    90.21% done, estimate finish Thu Oct 17 22:08:15 2013
    96.89% done, estimate finish Thu Oct 17 22:08:14 2013
    Total translation table size: 0
    Total rockridge attributes bytes: 0
    Total directory bytes: 4248
    Path table size(bytes): 42
    149658 extents written (292 MB)
    builtin_dd: 149664*2KB out @ average 2.0x1352KBps
    \.\F:: "Current Write Speed" is 8.2x1352KBps.
    \.\F:: flushing cache
    \.\F:: closing track
    \.\F:: closing disc
    Temporäres Verzeichnis leeren
    Brennen war erfolgreich.

     
  • Alex Thuering
    Alex Thuering
    2013-10-19

    As I see, DVD with 5.1 audio is created.
    How do you determine that DVD has stereo or 5.1 audio?


    Output #0, dvd, to 'C:\Users\blechbix\AppData\Local\Temp\dvd-cache\entry001.vob':
    Metadata:
    major_brand : isom
    minor_version : 512
    compatible_brands: isomiso2avc1mp41
    encoder : Lavf55.14.102
    Stream #0:0(und): Video: mpeg2video, yuv420p, 720x576, q=2-31, 8000 kb/s, 90k tbn, 25 tbc (default)
    Metadata:
    creation_time : 2013-03-16 21:39:24
    handler_name : VideoHandler
    Stream #0:1(und): Audio: ac3, 48000 Hz, 5.1, fltp, 192 kb/s (default)

     
    Last edit: Alex Thuering 2013-10-19
  • schwenky2
    schwenky2
    2013-10-19

    when i put the DVD into the DVD Player there is NO Sound at the raer Speakers !!

    But i found this in the later part of the logfile :
    Didnt this mean that the DVD has only 2 channels (Stereo)

    CHAPTERS: VTS[1/1] 0.000
    CHAPTERS: VTS[2/1] 0.000
    INFO: Generating VTSM with the following video attributes:
    INFO: MPEG version: mpeg2
    INFO: TV standard: ntsc
    INFO: Aspect ratio: 16:9
    INFO: Resolution: 720x480
    INFO: Audio ch 0 format: ac3/2ch, 48khz drc, 'de'

     
    Last edit: schwenky2 2013-10-19
  • Alex Thuering
    Alex Thuering
    2013-10-21

    It's a menu. But video title has 5.1 sound:

    INFO: Audio ch 0 format: ac3/6ch, 48khz drc, 'de'
    STAT: fixed 2 VOBUs
    STAT: fixing VOBU at 8MB (17/498, 3%)
    STAT: fixing VOBU at 18MB (33/498, 6%)
    ...

     
  • schwenky2
    schwenky2
    2013-10-21

    than what is the problem? when i do the same with dvdflick than is sound at the back rear speakers.so dvd player works. an pc also. i tested approx. 20 DVDs with differnt setting but there was never sound in the rear.... ??? maybe a problem with the burning process ? or some special settings. have you made a DVD that works with 5.1 sound ?! What can i test ?

     
  • JMJ
    JMJ
    2013-10-22

    I don't think there is a problem. Just that DVDStyler and DVDFlick uses different methods for up-mixing. So I made a test with both programs using an AC3 stereo input and de-muxed the resulting audio and opened it in Audacity.

    Below is the reult from DVDStyler

    picture not found

    And below that from DVDFlick

    picture not found

    In the OP is mentioned "Tested with following Input Audios : AAC(mp4/...),5.1,". That should however be produced with rear sound?

    Cheers

     
  • schwenky2
    schwenky2
    2013-10-22

    ??? pls help me to understand better... it seems that DVDstyler has only 2 ch Music in the picture , and DVD flick has three ?
    if i put a 2ch Signal Music-Video into DVD flick and enable 5.1 , after that i have an 5 ch Signal when i Play it with Dolby prologic.. it means on every channel (incl. Sub) i have Music. (not only3 channels like in your picture).. yes really, not a "real" 5.1 Dolby Sound but Music everywhere in the room maybe calculated by Dolby Prologic..... thats what i want to do/have...
    when i understood right, than makes dvdstyler only from the 2.0 Sound a 5.1 Sound but let three channels quite, means 2.0 in 5.1 ? what is the sense of this ? is it possible to Change the mp4 /ch2.0 Sound into a double 2.0 Sound or make something with the phases to Change it into 5.1, or the same as DVD Flick (3ch to have get it by playing prologic)?--> to get Sound on every channel ??

     
  • Alex Thuering
    Alex Thuering
    2013-10-23

    It's wonder me too. But I can confirm the analyse from JMJ.
    It seems that dvdflick uses another version of ffmpeg that gives such result. But I found the possibility to create same result as dvdflick using audio filter and plan to publish a fix this week.

     
  • schwenky2
    schwenky2
    2013-10-24

    wooow ! this would be great ! let me know when you have done it... i would like to test it first ! ;-))

     
  • Alex Thuering
    Alex Thuering
    2013-10-25

    I just published DVDStyler 2.6rc2. Please test.

     
  • schwenky2
    schwenky2
    2013-10-27

    ok i just tested. the styler made it a 2.1 tone (VL/VR/C) by playing it on the DVD player. but (and i dont know why) DolbyProLogic II can´t make it 5ch. So the signal comes only from the front in every position of the DVD player. In directly comparison to the DVD of DVDflick i miss the high tones by playing DVDstyler DVD. In comparison there are more middle tones now , sounds a Little bit like a sound of the 60ies. My opinion is that DVDflick makes something to the runtime of the soundphases so that the DVD Player could calculate the LR LL Sound. But i am not a professional only a user testing by my own ears. Maybe JMJ can solve the Problem by his software. At the moment the result for my personal sensation is not totally satisfying to make a music concert DVD if you have only 2.0 sound. Do you think you can find a button where you can still uppgrade it a little bit ? But maybe my wishes are too much ? DVDstyler is a great software anyway.

     
  • schwenky2
    schwenky2
    2013-10-27

    i found this looking at the dvdflick changelog: " - Changed: Updated FFmpeg to revision 19276." Maybe this Information could help to solve the problem ?!?

     
  • schwenky2
    schwenky2
    2013-10-27

    this one is the log of dvdflick:

    C:\Program Files (x86)\DVD Flick\bin\ffmpeg.exe -i "C:\Users\blechbix\Videos\The final Wall DVDs\thanx.mp4" -i "C:\Users\blechbix\Documents\testdvdflick51\0.0.m2v" -map 0:1:1:0 -acodec ac3 -ab 192k -ac 2 -ar 48000 -threads 4 -async 0 -shortest "C:\Users\blechbix\Documents\testdvdflick51\0.0.0.ac3"
    FFmpeg version SVN-r19276, Copyright (c) 2000-2009 Fabrice Bellard, et al.
    configuration: --enable-gpl --enable-memalign-hack --enable-runtime-cpudetect --disable-protocols --disable-indevs --disable-bsfs --disable-filters --disable-network --disable-ffplay --disable-ffserver --disable-encoders --disable-muxers --enable-w32threads --enable-libgsm --enable-libfaad --enable-encoder=mjpeg --enable-encoder=mpeg2video --enable-encoder=ac3 --enable-demuxers --enable-muxer=ac3 --enable-muxer=image2 --enable-muxer=mpeg2video --enable-muxer=dvd --enable-avisynth --enable-protocol=file --enable-protocol=pipe --enable-encoder=rawvideo --enable-muxer=yuv4mpegpipe
    libavutil 50. 3. 0 / 50. 3. 0
    libavcodec 52.32. 0 / 52.32. 0
    libavformat 52.36. 0 / 52.36. 0
    libavdevice 52. 2. 0 / 52. 2. 0
    libswscale 0. 7. 1 / 0. 7. 1
    built on Jun 26 2009 00:46:13, gcc: 4.4.0
    [mov,mp4,m4a,3gp,3g2,mj2 @ 0x1288c90]multiple edit list entries, a/v desync might occur, patch welcome