#101 cdrecord: Only one FILE allowed on line

closed
nobody
None
5
2005-04-27
2004-12-22
scomodo
No

i am trying tu burn a .cue but i get this error
cdrecord: Only one FILE allowed on line 8 in 'Il Trono
Dei Ricordi.CUE'.

# cat Il\ Trono\ Dei\ Ricordi.CUE

PERFORMER "Il Trono Dei Ricordi"
TITLE "Il Trono Dei Ricordi"
FILE "01-The King of Memories.wav" WAVE
TRACK 01 AUDIO
TITLE "The King of Memories"
PERFORMER "Il Trono Dei Ricordi"
INDEX 01 00:00:00
FILE "02-A memorable fancy.wav" WAVE
TRACK 02 AUDIO
TITLE "A memorable fancy"
PERFORMER "Il Trono Dei Ricordi"
INDEX 00 00:00:00
INDEX 01 00:04:10
FILE "03-On the Rising Sun.wav" WAVE
TRACK 03 AUDIO
TITLE "On the Rising Sun"
PERFORMER "Il Trono Dei Ricordi"
INDEX 01 00:00:00
FILE "04-Visions of the Daughters of Albion.wav" WAVE
TRACK 04 AUDIO
TITLE "Visions of the Daughters of Albion"
PERFORMER "Il Trono Dei Ricordi"
INDEX 00 00:00:00
INDEX 01 00:03:12

i have all 4wav in this directory but i don't
understand whereis the problem..

this is the command i give:
# cdrecord -v gracetime=2 dev=/dev/hdd speed=40 -dao
-dummy driveropts=burnfree cuefile=Il\ Trono\ Dei\ Ricordi.CUE

please help me..

Discussion

  • Denis Leroy
    Denis Leroy
    2005-04-27

    Logged In: YES
    user_id=95186

    cdrdao's native support of the CUE format is extremely poor.
    I hope to improve it in the fute, until then please use the
    cue2toc utility that's provided with cdrdao...

     
  • Denis Leroy
    Denis Leroy
    2005-04-27

    • status: open --> closed