Work at SourceForge, help us to make it a better place! We have an immediate need for a Support Technician in our San Francisco or Denver office.

Close

#22 Expanded CUE sheet compatibility

closed
5
2005-05-03
2002-04-11
Anonymous
No

I'd like to see cdrdao be able to handle more
cuesheets than it currently does. Specifically I'd
like to be able to burn an audio CD from a CUE sheet
based on a large WAV file. Like this example...

FILE wave1.wav WAVE
TRACK 01 AUDIO
INDEX 01 00:00:00
TRACK 02 AUDIO
INDEX 01 07:55:21
TRACK 03 AUDIO
INDEX 01 12:01:03
TRACK 04 AUDIO
INDEX 01 14:08:24
TRACK 05 AUDIO
INDEX 01 27:14:11
TRACK 06 AUDIO
INDEX 01 30:20:29
TRACK 07 AUDIO
INDEX 01 33:54:55
TRACK 08 AUDIO
INDEX 01 41:48:56
TRACK 09 AUDIO
INDEX 01 48:45:42
FILE wave2.wav WAVE
TRACK 10 AUDIO
INDEX 01 00:00:00
TRACK 11 AUDIO
INDEX 01 07:48:13

Discussion

  • David Willmore
    David Willmore
    2003-01-24

    Logged In: YES
    user_id=685420

    This is just a syntax difference from what it supports right
    now. Is some different parsing all you want?

    Right now, you can do:

    CD_DA
    // Track 1
    TRACK AUDIO
    NO COPY
    NO PRE_EMPHASIS
    TWO_CHANNEL_AUDIO
    FILE "blow.wav" 0 01:44:05

    // Track 2
    TRACK AUDIO
    NO COPY
    NO PRE_EMPHASIS
    TWO_CHANNEL_AUDIO
    FILE "drag.wav" 01:31:50 02:29:25
    // Track 3
    TRACK AUDIO
    NO COPY
    NO PRE_EMPHASIS
    TWO_CHANNEL_AUDIO
    FILE "have.wav" 04:42:13 02:42:40

    Three tracks each from subsections of different audio files.
    Won't that work for you?

     
  • Logged In: NO

    This is exactly what i'd like to see in cdrdao also. This is only a
    problem with long live recordings where all the audio comes from
    a single file. The syntax now forces you to make error prone
    calculations with timecodes. I'd like to be able to just insert a new
    track when ever I want by inserting only a start timecode, and not
    worry about calculating the length of the wav chunk. Computers
    do calculations much more efficiently than I do. In my humble
    opinion this is how it should be done, computer doing the needed
    calculations :) Enabling me to just insert a new timecode at the
    start of each track when needed.

    Cdrdao is great :( Keep up the good work :)

    M. Hartzell

     
  • Denis Leroy
    Denis Leroy
    2005-05-03

    Logged In: YES
    user_id=95186

    Done in 1.2.0

     
  • Denis Leroy
    Denis Leroy
    2005-05-03

    • status: open --> closed