tracks with negative offset

Help
dwl987
2007-03-19
2013-04-30
  • dwl987
    dwl987
    2007-03-19

    Is it possible (and does someone have a TOC sample) to create a CD with tracks starting with a negative offset ?

    What I want to do is something I found on some live performances CDs, something like the following :

    Track 01 going from 00:00 to 01:00
    When the track 01 finishes the track 02 starts
    and the players displays a time going from -00:30 to -00:01 then from 00:00 to 00:40 (which makes a track thats lasts 70s)
    If you use the "previous track" key while listening the track 02 or the "next track" while listening the track 01 it brings you to track 02 at 00:00 (playing from 00 to 00:40, in other words it skipped the negative 30s offset).

     
    • dwl987
      dwl987
      2007-03-19

      I found it !
      All you have to do is use the START keyword inside between two parts

      CD_DA
      TRACK AUDIO
      FILE "01.wav" 0

      TRACK AUDIO
      FILE "02Pre.wav" 0
      START
      FILE "02Post.wav" 0

      TRACK AUDIO
      FILE "03.wav" 0

      TRACK AUDIO
      FILE "04.wav" 0

      ...