Work at SourceForge, help us to make it a better place! We have an immediate need for a Support Technician in our San Francisco or Denver office.

Close

#135 wrong length of pre-track-gaps

reproducible
open
nobody
5
2004-06-16
2004-06-16
Anonymous
No

cdrdao 1.1.9 (and older versions too) doesn't get the
length of the pre-track-gaps right. I even get
different results when using different drivers or
different drives. It should not be a writing problem,
because EAC gets the gaps right.

---

Sample:
cdrdao write --device 0,1,0 write.toc

cdrdao read-toc --device 0,1,0 read.toc

cdrdao read-toc --device 0,1,0 --driver plextor
read-driver_plextor.toc

---

cdrdao 1.1.9
PlexWriter 24/10/40A 1.04

Discussion

  • TOC used for writing the CD.

     
    Attachments
  • Logged In: NO

    file: read.toc

    CD_DA

    // Track 1
    TRACK AUDIO
    NO COPY
    NO PRE_EMPHASIS
    TWO_CHANNEL_AUDIO
    FILE "data.wav" 0 03:23:41

    // Track 2
    TRACK AUDIO
    NO COPY
    NO PRE_EMPHASIS
    TWO_CHANNEL_AUDIO
    FILE "data.wav" 03:23:41 03:17:62
    START 00:01:74

    // Track 3
    TRACK AUDIO
    NO COPY
    NO PRE_EMPHASIS
    TWO_CHANNEL_AUDIO
    FILE "data.wav" 06:41:28 02:59:09
    START 00:01:74

    // Track 4
    TRACK AUDIO
    NO COPY
    NO PRE_EMPHASIS
    TWO_CHANNEL_AUDIO
    FILE "data.wav" 09:40:37 02:10:38
    START 00:01:74

    // Track 5
    TRACK AUDIO
    NO COPY
    NO PRE_EMPHASIS
    TWO_CHANNEL_AUDIO
    FILE "data.wav" 11:51:00 02:02:46
    START 00:01:74

    // Track 6
    TRACK AUDIO
    NO COPY
    NO PRE_EMPHASIS
    TWO_CHANNEL_AUDIO
    FILE "data.wav" 13:53:46 03:34:21
    START 00:01:74

    // Track 7
    TRACK AUDIO
    NO COPY
    NO PRE_EMPHASIS
    TWO_CHANNEL_AUDIO
    FILE "data.wav" 17:27:67 01:58:21
    START 00:01:74

    // Track 8
    TRACK AUDIO
    NO COPY
    NO PRE_EMPHASIS
    TWO_CHANNEL_AUDIO
    FILE "data.wav" 19:26:13 04:04:12
    START 00:01:74

    // Track 9
    TRACK AUDIO
    NO COPY
    NO PRE_EMPHASIS
    TWO_CHANNEL_AUDIO
    FILE "data.wav" 23:30:25 03:00:18
    START 00:01:74

    // Track 10
    TRACK AUDIO
    NO COPY
    NO PRE_EMPHASIS
    TWO_CHANNEL_AUDIO
    FILE "data.wav" 26:30:43 02:47:07
    START 00:01:74

     
  • Logged In: NO

    file: read-driver_plextor.toc

    CD_DA

    // Track 1
    TRACK AUDIO
    NO COPY
    NO PRE_EMPHASIS
    TWO_CHANNEL_AUDIO
    FILE "data.wav" 0 03:25:40

    // Track 2
    TRACK AUDIO
    NO COPY
    NO PRE_EMPHASIS
    TWO_CHANNEL_AUDIO
    FILE "data.wav" 03:25:40 03:15:58

    // Track 3
    TRACK AUDIO
    NO COPY
    NO PRE_EMPHASIS
    TWO_CHANNEL_AUDIO
    FILE "data.wav" 06:41:23 02:59:09
    START 00:02:04

    // Track 4
    TRACK AUDIO
    NO COPY
    NO PRE_EMPHASIS
    TWO_CHANNEL_AUDIO
    FILE "data.wav" 09:40:32 02:10:38
    START 00:02:04

    // Track 5
    TRACK AUDIO
    NO COPY
    NO PRE_EMPHASIS
    TWO_CHANNEL_AUDIO
    FILE "data.wav" 11:50:70 02:02:46
    START 00:02:04

    // Track 6
    TRACK AUDIO
    NO COPY
    NO PRE_EMPHASIS
    TWO_CHANNEL_AUDIO
    FILE "data.wav" 13:53:41 03:36:25
    START 00:02:04

    // Track 7
    TRACK AUDIO
    NO COPY
    NO PRE_EMPHASIS
    TWO_CHANNEL_AUDIO
    FILE "data.wav" 17:29:66 01:56:17

    // Track 8
    TRACK AUDIO
    NO COPY
    NO PRE_EMPHASIS
    TWO_CHANNEL_AUDIO
    FILE "data.wav" 19:26:08 04:04:12
    START 00:02:04

    // Track 9
    TRACK AUDIO
    NO COPY
    NO PRE_EMPHASIS
    TWO_CHANNEL_AUDIO
    FILE "data.wav" 23:30:20 03:02:22
    START 00:02:04

    // Track 10
    TRACK AUDIO
    NO COPY
    NO PRE_EMPHASIS
    TWO_CHANNEL_AUDIO
    FILE "data.wav" 26:32:42 02:45:08