Learn how easy it is to sync an existing GitHub or Google Code repo to a SourceForge project! See Demo

Close

error: movie contains no audio

Help
row
2010-01-23
2013-05-14
  • row
    row
    2010-01-23

    I have successfully used burn in the past, it has worked very nicely
    I have been trying to burn a dvd torrent movie and It comes up with this error: movie contains no audio tracks!
    The audio plays perfectly on my VLC player.
    what I am doing wrong or is the problem in the down loaded torrent. I have spent considerable searching for answers on the web, and not finding any.

    All answers are very much appreciated,

    here is my log file

    ----FFmpeg version UNKNOWN, Copyright (C) 2000-2009 Fabrice Bellard, et al.
      configuration: -disable-muxers -disable-encoders -enable-muxer=avi -enable-muxer=mpeg1vcd -enable-muxer=mpeg2dvd -enable-muxer=mpeg2svcd -enable-muxer=wav -enable-muxer=mp3 -enable-muxer=flac -enable-encoder=ac3 -enable-encoder=mp2 -enable-encoder=libmp3lame -enable-encoder=flac -enable-encoder=wav -enable-encoder=png -disable-protocols -enable-protocol=file -enable-protocol=pipe -disable-bsfs -enable-libmp3lame -disable-shared -enable-gpl -enable-encoder=mpeg4 -enable-encoder=mpeg1video -enable-encoder=mpeg2video -enable-muxer=image2 -enable-encoder=mjpeg -disable-bzlib -disable-ipv6 -disable-network -enable-encoder=pcm_s16le -enable-pthreads -arch=i386 -extra-cflags='-arch i386 -isysroot /Developer/SDKs/MacOSX10.4u.sdk -mmacosx-version-min=10.4' -extra-ldflags='-arch i386 -isysroot /Developer/SDKs/MacOSX10.4u.sdk -mmacosx-version-min=10.4' -enable-cross-compile -enable-muxer=pcm_s16le
      libavutil     50. 3. 0 / 50. 3. 0
      libavcodec    52.23. 0 / 52.23. 0
      libavformat   52.32. 0 / 52.32. 0
      libavdevice   52. 2. 0 / 52. 2. 0
      libswscale     0. 7. 1 /  0. 7. 1
      built on Apr 12 2009 19:08:20, gcc: 4.0.1 (Apple Inc. build 5484)
    Invalid and inefficient vfw-avi packed B frames detected

    Seems stream 0 codec frame rate differs from container frame rate: 23.98 (65535/2733) -> 23.98 (2500000/104271)
    Input #0, avi, from '/Users/laurasmith/Desktop/imbt-xvid-jj-cd2.avi..avi':
      Duration: 01:03:54.75, start: 0.000000, bitrate: 1525 kb/s
        Stream #0.0: Video: mpeg4, yuv420p, 624x336 , 23.98 tbr, 23.98 tbn, 23.98 tbc
        Stream #0.1: Audio: ac3, 48000 Hz, 5.1, s16, 448 kb/s
    At least one output file must be specified
    FFmpeg version UNKNOWN, Copyright (C) 2000-2009 Fabrice Bellard, et al.
      configuration: -disable-muxers -disable-encoders -enable-muxer=avi -enable-muxer=mpeg1vcd -enable-muxer=mpeg2dvd -enable-muxer=mpeg2svcd -enable-muxer=wav -enable-muxer=mp3 -enable-muxer=flac -enable-encoder=ac3 -enable-encoder=mp2 -enable-encoder=libmp3lame -enable-encoder=flac -enable-encoder=wav -enable-encoder=png -disable-protocols -enable-protocol=file -enable-protocol=pipe -disable-bsfs -enable-libmp3lame -disable-shared -enable-gpl -enable-encoder=mpeg4 -enable-encoder=mpeg1video -enable-encoder=mpeg2video -enable-muxer=image2 -enable-encoder=mjpeg -disable-bzlib -disable-ipv6 -disable-network -enable-encoder=pcm_s16le -enable-pthreads -arch=i386 -extra-cflags='-arch i386 -isysroot /Developer/SDKs/MacOSX10.4u.sdk -mmacosx-version-min=10.4' -extra-ldflags='-arch i386 -isysroot /Developer/SDKs/MacOSX10.4u.sdk -mmacosx-version-min=10.4' -enable-cross-compile -enable-muxer=pcm_s16le
      libavutil     50. 3. 0 / 50. 3. 0
      libavcodec    52.23. 0 / 52.23. 0
      libavformat   52.32. 0 / 52.32. 0
      libavdevice   52. 2. 0 / 52. 2. 0
      libswscale     0. 7. 1 /  0. 7. 1
      built on Apr 12 2009 19:08:20, gcc: 4.0.1 (Apple Inc. build 5484)
    Invalid and inefficient vfw-avi packed B frames detected

    Seems stream 0 codec frame rate differs from container frame rate: 23.98 (65535/2733) -> 23.98 (2500000/104271)
    Input #0, avi, from '/Users/laurasmith/Desktop/imbt-xvid-jj-cd2.avi..avi':
      Duration: 01:03:54.75, start: 0.000000, bitrate: 1525 kb/s
        Stream #0.0: Video: mpeg4, yuv420p, 624x336 , 23.98 tbr, 23.98 tbn, 23.98 tbc
        Stream #0.1: Audio: ac3, 48000 Hz, 5.1, s16, 448 kb/s
    At least one output file must be specified
    FFmpeg version UNKNOWN, Copyright (C) 2000-2009 Fabrice Bellard, et al.
      configuration: -disable-muxers -disable-encoders -enable-muxer=avi -enable-muxer=mpeg1vcd -enable-muxer=mpeg2dvd -enable-muxer=mpeg2svcd -enable-muxer=wav -enable-muxer=mp3 -enable-muxer=flac -enable-encoder=ac3 -enable-encoder=mp2 -enable-encoder=libmp3lame -enable-encoder=flac -enable-encoder=wav -enable-encoder=png -disable-protocols -enable-protocol=file -enable-protocol=pipe -disable-bsfs -enable-libmp3lame -disable-shared -enable-gpl -enable-encoder=mpeg4 -enable-encoder=mpeg1video -enable-encoder=mpeg2video -enable-muxer=image2 -enable-encoder=mjpeg -disable-bzlib -disable-ipv6 -disable-network -enable-encoder=pcm_s16le -enable-pthreads -arch=i386 -extra-cflags='-arch i386 -isysroot /Developer/SDKs/MacOSX10.4u.sdk -mmacosx-version-min=10.4' -extra-ldflags='-arch i386 -isysroot /Developer/SDKs/MacOSX10.4u.sdk -mmacosx-version-min=10.4' -enable-cross-compile -enable-muxer=pcm_s16le
      libavutil     50. 3. 0 / 50. 3. 0
      libavcodec    52.23. 0 / 52.23. 0
      libavformat   52.32. 0 / 52.32. 0
      libavdevice   52. 2. 0 / 52. 2. 0
      libswscale     0. 7. 1 /  0. 7. 1
      built on Apr 12 2009 19:08:20, gcc: 4.0.1 (Apple Inc. build 5484)
    Invalid and inefficient vfw-avi packed B frames detected

    Seems stream 0 codec frame rate differs from container frame rate: 23.98 (65535/2733) -> 23.98 (2500000/104271)
    Input #0, avi, from '/Users/laurasmith/Desktop/imbt-xvid-jj-cd2.avi..avi':
      Duration: 01:03:54.75, start: 0.000000, bitrate: 1525 kb/s
        Stream #0.0: Video: mpeg4, yuv420p, 624x336 , 23.98 tbr, 23.98 tbn, 23.98 tbc
        Stream #0.1: Audio: ac3, 48000 Hz, 5.1, s16, 448 kb/s
    Output #0, vcd, to '/Users/laurasmith/Documents/Burn Temporary.localized/tempkf.mpg':
        Stream #0.0: Video: mpeg1video, yuv420p, 352x288 , q=2-31, 1150 kb/s, 90k tbn, 25 tbc
        Stream #0.1: Audio: mp2, 44100 Hz, stereo, s16, 224 kb/s
    Stream mapping:
      Stream #0.0 -> #0.0
      Stream #0.1 -> #0.1
    Press  to stop encoding
    frame sync error
    Error while decoding stream #0.1
    Invalid and inefficient vfw-avi packed B frames detected
    frame=    4 fps=  0 q=4.0 Lsize=      52kB time=0.12 bitrate=3563.5kbits/s   
    video:28kB audio:16kB global headers:0kB muxing overhead 17.772000%
    FFmpeg version UNKNOWN, Copyright (C) 2000-2009 Fabrice Bellard, et al.
      configuration: -disable-muxers -disable-encoders -enable-muxer=avi -enable-muxer=mpeg1vcd -enable-muxer=mpeg2dvd -enable-muxer=mpeg2svcd -enable-muxer=wav -enable-muxer=mp3 -enable-muxer=flac -enable-encoder=ac3 -enable-encoder=mp2 -enable-encoder=libmp3lame -enable-encoder=flac -enable-encoder=wav -enable-encoder=png -disable-protocols -enable-protocol=file -enable-protocol=pipe -disable-bsfs -enable-libmp3lame -disable-shared -enable-gpl -enable-encoder=mpeg4 -enable-encoder=mpeg1video -enable-encoder=mpeg2video -enable-muxer=image2 -enable-encoder=mjpeg -disable-bzlib -disable-ipv6 -disable-network -enable-encoder=pcm_s16le -enable-pthreads -arch=i386 -extra-cflags='-arch i386 -isysroot /Developer/SDKs/MacOSX10.4u.sdk -mmacosx-version-min=10.4' -extra-ldflags='-arch i386 -isysroot /Developer/SDKs/MacOSX10.4u.sdk -mmacosx-version-min=10.4' -enable-cross-compile -enable-muxer=pcm_s16le
      libavutil     50. 3. 0 / 50. 3. 0
      libavcodec    52.23. 0 / 52.23. 0
      libavformat   52.32. 0 / 52.32. 0
      libavdevice   52. 2. 0 / 52. 2. 0
      libswscale     0. 7. 1 /  0. 7. 1
      built on Apr 12 2009 19:08:20, gcc: 4.0.1 (Apple Inc. build 5484)
    Invalid and inefficient vfw-avi packed B frames detected

    Seems stream 0 codec frame rate differs from container frame rate: 23.98 (65535/2733) -> 23.98 (2500000/104271)
    Input #0, avi, from '/Users/laurasmith/Desktop/imbt-xvid-jj-cd2.avi..avi':
      Duration: 01:03:54.75, start: 0.000000, bitrate: 1525 kb/s
        Stream #0.0: Video: mpeg4, yuv420p, 624x336 , 23.98 tbr, 23.98 tbn, 23.98 tbc
        Stream #0.1: Audio: ac3, 48000 Hz, 5.1, s16, 448 kb/s
    Output #0, vcd, to '/Users/laurasmith/Documents/Burn Temporary.localized/tempkf.mpg':
        Stream #0.0: Video: mpeg1video, yuv420p, 352x288 , q=2-31, 1150 kb/s, 90k tbn, 25 tbc
    Stream mapping:
      Stream #0.0 -> #0.0
    Press  to stop encoding
    Invalid and inefficient vfw-avi packed B frames detected
    frame=    4 fps=  0 q=4.0 Lsize=      45kB time=0.12 bitrate=3098.7kbits/s   
    video:28kB audio:0kB global headers:0kB muxing overhead 62.722308%
    error: movie contains no audio tracks!

     
  • row
    row
    2010-01-24

    Thank you maatenapple,
    I tried the test version that you asked me to on the 2 torrent files that I downloaded and had the no audio error. They both failed again. In the test version there was no console report to look at the error.

    I have successfully burned  8  torrents using your burn program. I found it very a friendly program to use after setting the area code NTSC which initially caused me a authoring error.
    On one of  torrent files that did not burn, the torrent came in 2 parts, both played fine on my VLC player, the audio was excellent.
    Part 1 was burned successfully, but part 2 came up with the "error: no audio tracks available!" and would not burn.
    I would like to solve this problem and understand why it won't work.
    I do thank for your program and for helping me. I will be making a donation through my Paypal account

    ROW

    For your info I am working on a

      Model Name: MacBook Pro
      Model Identifier: MacBookPro3,1
      Processor Name: Intel Core 2 Duo
      Processor Speed: 2.2 GHz
      Number Of Processors: 1
      Total Number Of Cores: 2
      L2 Cache: 4 MB
      Memory: 2 GB
      Bus Speed: 800 MHz
      Boot ROM Version: MBP31.0070.B05
      SMC Version (system): 1.16f10
      Serial Number (system): W87457LXX91
      Hardware UUID: 00000000-0000-1000-8000-001B63B71A90
      Sudden Motion Sensor:
      State: Enabled

     
  • It seems ffmpeg (Burns internal encoder helper application) is having a problem with the AC3 audio in the avi file:
    'frame sync error
    Error while decoding stream #0.1'

    Using the fragment created with the app from my above reply I might be able to create a workaround.

     
  • I've been Googling around and it seems it mostly a problem with broken or split files.
    Is the avi you've used a split avi?

     
  • I've had exactly this problem using Burn.

    I have worked around it by opening the Preferences, and setting the General preference "Temporary Folder" to "Ask every time", instead of the default "Burn Temporary" option. For some reason, having the temporary folder set to "Burn Temporary" created the folder, but then caused the error we see here.

     
  • Peter Tatiner
    Peter Tatiner
    2011-08-07

    And did you?